<?xml version="1.0" standalone="no"?>
<!DOCTYPE svg PUBLIC "-//W3C//DTD SVG 1.1//EN" "http://www.w3.org/Graphics/SVG/1.1/DTD/svg11.dtd" >
<svg xmlns="http://www.w3.org/2000/svg">
<metadata>Generated by IcoMoon</metadata>
<defs>
<font id="icomoon" horiz-adv-x="1024">
<font-face units-per-em="1024" ascent="960" descent="-64" />
<missing-glyph horiz-adv-x="1024" />
<glyph unicode="&#x20;" horiz-adv-x="512" d="" />
<glyph unicode="&#xe900;" glyph-name="phone-receiver-silhouette" d="M882.298 247.296c-61.86 52.908-124.638 84.957-185.739 32.129l-36.484-31.929c-26.694-23.177-76.325-131.472-268.218 89.273-191.853 220.465-77.684 254.791-50.95 277.769l36.684 31.969c60.781 52.948 37.843 119.603-5.994 188.216l-26.454 41.559c-44.037 68.453-91.99 113.409-152.931 60.541l-32.928-28.772c-26.934-19.621-102.22-83.399-120.482-204.56-21.979-145.378 47.354-311.855 206.199-494.517 158.645-182.742 313.973-274.532 461.11-272.933 122.281 1.319 196.128 66.935 219.226 90.791l33.048 28.812c60.781 52.828 23.018 106.616-38.882 159.644l-37.204 32.009z" />
<glyph unicode="&#xe901;" glyph-name="location-marker" d="M512 960c-229.573 0-415.682-186.11-415.682-415.682 0-208.259 258.992-482.265 368.133-588.494 26.732-25.965 68.998-26.507 96.25-1.061 109.797 102.346 366.982 366.011 366.982 589.578-0.023 229.55-186.11 415.66-415.682 415.66zM512 409.256c-94.918 0-171.818 76.9-171.818 171.796s76.9 171.818 171.818 171.818c94.895 0 171.773-76.9 171.773-171.818s-76.878-171.796-171.773-171.796z" />
<glyph unicode="&#xe902;" glyph-name="envelope" d="M98.284 602.281c12.953-9.141 52-36.289 117.142-81.429 65.144-45.141 115.048-79.898 149.715-104.274 3.809-2.672 11.901-8.48 24.28-17.433 12.381-8.959 22.669-16.198 30.855-21.72 8.192-5.52 18.095-11.713 29.72-18.568 11.62-6.849 22.574-12.001 32.86-15.411 10.288-3.439 19.81-5.142 28.571-5.142h1.151c8.76 0 18.287 1.705 28.575 5.142 10.282 3.41 21.246 8.568 32.856 15.411 11.616 6.863 21.52 13.050 29.712 18.568 8.192 5.522 18.471 12.761 30.857 21.72 12.377 8.961 20.479 14.761 24.288 17.433 35.042 24.376 124.193 86.283 267.425 185.716 27.808 19.42 51.041 42.853 69.705 70.283 18.678 27.418 28.006 56.181 28.006 86.273 0 25.146-9.053 46.672-27.15 64.575-18.095 17.907-39.527 26.856-64.281 26.856h-841.144c-29.331 0-51.904-9.903-67.713-29.71-15.808-19.81-23.711-44.573-23.711-74.284 0-24 10.48-50.007 31.429-78.005 20.947-28 43.24-50.003 66.855-66zM966.85 541.144c-124.939-84.564-219.809-150.284-284.562-197.146-21.714-15.994-39.329-28.479-52.857-37.425-13.528-8.953-31.519-18.095-53.999-27.424-22.472-9.343-43.416-14-62.848-14h-1.157c-19.428 0-40.383 4.657-62.856 14-22.472 9.329-40.476 18.471-53.999 27.424-13.52 8.947-31.141 21.432-52.853 37.425-51.432 37.712-146.097 103.436-283.999 197.146-21.72 14.467-40.958 31.049-57.72 49.712v-453.701c0-25.158 8.949-46.672 26.856-64.577 17.903-17.911 39.431-26.864 64.575-26.864h841.146c25.138 0 46.664 8.953 64.569 26.864 17.911 17.911 26.856 39.417 26.856 64.577v453.701c-16.384-18.277-35.426-34.859-57.152-49.712z" />
<glyph unicode="&#xe903;" glyph-name="clock" d="M511.991 960c-282.762 0-511.991-229.236-511.991-511.991s229.23-512.009 511.991-512.009 512.009 229.254 512.009 512.009-229.247 511.991-512.009 511.991zM733.34 350.628h-217.064c-0.734 0-1.417 0.177-2.144 0.205-0.727-0.034-1.406-0.205-2.144-0.205-19.555 0-35.411 15.855-35.411 35.411v361.481c0 19.555 15.855 35.411 35.411 35.411s35.411-15.855 35.411-35.411v-326.071h185.927c19.555 0 35.411-15.855 35.411-35.411s-15.842-35.411-35.397-35.411z" />
<glyph unicode="&#xe904;" glyph-name="specialist-user" d="M511.999 382.488c70.65 0 236.758 85.026 236.758 288.759 0.003 159.474-21.524 288.753-236.758 288.753-215.23 0-236.758-129.279-236.758-288.756 0-203.73 166.107-288.756 236.758-288.756zM310.626 719.435c16.631 32.164 52.605 69.332 129.97 67.684 0 0 46.112-111.851 272.497-61.622 0.914-17.867 1.201-36.097 1.201-54.253 0-99.584-43.971-161.287-80.862-195.513-46.481-43.128-98.087-58.781-121.433-58.781s-74.952 15.653-121.433 58.781c-36.89 34.225-80.862 95.929-80.862 195.513 0.003 16.11 0.237 32.275 0.922 48.191zM951.546 86.349c-12.086 75.16-36.972 171.973-86.883 206.377-34.082 23.498-152.994 87.029-203.771 114.159l-0.879 0.469c-5.804 3.101-12.891 2.48-18.069-1.584-26.6-20.883-55.738-34.958-86.605-41.831-5.453-1.215-9.928-5.090-11.91-10.311l-31.432-82.85-31.432 82.85c-1.983 5.222-6.457 9.096-11.91 10.311-30.866 6.873-60.005 20.948-86.605 41.831-5.178 4.065-12.265 4.689-18.069 1.584-50.174-26.81-170.541-91.636-204.5-114.525-57.454-38.706-82.578-178.791-87.029-206.48-0.442-2.747-0.184-5.555 0.741-8.176 2.056-5.804 54.786-142.173 438.804-142.173s436.748 136.369 438.804 142.173c0.928 2.621 1.186 5.432 0.744 8.176zM774.588 132.212l-75.166-23.428-75.166 23.428v40.443h150.332v-40.443z" />
<glyph unicode="&#xe905;" glyph-name="phone-call" d="M943.158 285.776c-63.166 0-125.035 9.863-183.673 29.212-28.618 9.863-61.117 2.264-79.925-16.924l-116.251-87.795c-133.39 71.194-218.759 156.51-288.983 288.93l85.422 113.502c21.504 21.504 29.212 52.979 19.996 82.459-19.511 59.015-29.427 120.94-29.427 183.997 0 44.572-36.27 80.842-80.842 80.842h-188.633c-44.572 0-80.842-36.27-80.842-80.842 0-520.030 423.128-943.158 943.158-943.158 44.572 0 80.842 36.27 80.842 80.842v188.092c0 44.572-36.27 80.842-80.842 80.842z" />
<glyph unicode="&#xe906;" glyph-name="love" d="M752 898c-109.088 0-190.034-66.994-240-162.030-49.962 95.030-130.908 162.030-240 162.030-157.218 0-272-132.030-272-293.030 0-212.914 203.144-346.582 492.244-599.546 11.314-9.898 28.198-9.896 39.512 0 288.834 252.732 492.244 386.606 492.244 599.546 0 161.026-114.8 293.030-272 293.030zM512 67.798c-266.244 231.27-452 359.744-452 537.172 0 132.848 91.14 233.030 212 233.030 116.504 0 188.702-107.894 211.084-187.992 8.072-29.22 49.66-29.35 57.832 0 22.086 79.036 93.446 187.992 211.084 187.992 120.86 0 212-100.182 212-233.030 0-177.53-186.060-306.166-452-537.172z" />
<glyph unicode="&#xe907;" glyph-name="magnifiying-glass" d="M1012.338 3.963l-249.906 249.901c62.118 74.699 99.542 170.621 99.542 275.137 0 237.654-193.34 431-430.984 431-237.649 0-430.989-193.346-430.989-431 0-237.638 193.34-430.968 430.989-430.968 104.511 0 200.438 37.418 275.137 99.537l249.911-249.906c7.771-7.777 17.963-11.662 28.15-11.662s20.379 3.886 28.155 11.662c15.548 15.548 15.548 40.752-0.005 56.3zM79.625 529c0 193.749 157.621 351.375 351.364 351.375 193.738 0 351.354-157.626 351.354-351.375 0-193.733-157.615-351.343-351.354-351.343-193.744 0-351.364 157.61-351.364 351.343z" />
<glyph unicode="&#xe908;" glyph-name="play-button" d="M117.071-58.166c7.031-3.897 14.801-5.834 22.565-5.834 8.574 0 17.135 2.368 24.669 7.075l744.727 465.451c13.61 8.505 21.876 23.422 21.876 39.471s-8.266 30.965-21.876 39.471l-744.727 465.458c-14.352 8.971-32.436 9.443-47.234 1.241-14.798-8.204-23.98-23.791-23.98-40.712v-930.909c0-16.921 9.182-32.507 23.98-40.712z" />
<glyph unicode="&#xe909;" glyph-name="star" d="M1022.53 565.486c-3.528 10.862-12.914 18.778-24.214 20.418l-317.445 46.13-141.969 287.653c-5.052 10.24-15.482 16.722-26.9 16.722-11.42 0-21.848-6.482-26.902-16.722l-141.975-287.653-317.439-46.13c-11.298-1.64-20.688-9.556-24.216-20.416-3.53-10.862-0.586-22.784 7.592-30.754l229.695-223.907-54.216-316.165c-1.932-11.256 2.696-22.628 11.934-29.342 5.226-3.796 11.416-5.728 17.636-5.728 4.776 0 9.568 1.138 13.956 3.446l283.933 149.275 283.921-149.273c10.11-5.314 22.356-4.43 31.594 2.282s13.868 18.088 11.938 29.344l-54.234 316.161 229.721 223.909c8.176 7.968 11.122 19.89 7.59 30.75z" />
<glyph unicode="&#xe90a;" glyph-name="star-1" d="M229.193-43.294c-11.219 0-22.36 3.5-31.868 10.375-17.711 12.836-25.985 34.899-21.165 56.189l65.877 290.187-223.412 195.927c-16.422 14.336-22.696 37.040-15.954 57.814 6.742 20.735 25.087 35.415 46.806 37.423l295.601 26.837 116.87 273.499c8.617 20.094 28.243 33.071 50.048 33.071s41.431-12.977 50.048-33.024l116.87-273.546 295.554-26.837c21.766-1.961 40.11-16.688 46.853-37.423s0.508-43.478-15.914-57.814l-223.412-195.888 65.877-290.179c4.828-21.336-3.453-43.4-21.157-56.197-17.665-12.797-41.22-13.782-59.822-2.602l-254.897 152.324-254.897-152.41c-8.617-5.117-18.219-7.727-27.907-7.727zM511.998 182.462c9.688 0 19.282-2.602 27.907-7.719l240.561-143.879-62.173 273.89c-4.438 19.493 2.18 39.845 17.243 53.033l210.951 185.005-279.093 25.344c-20.094 1.836-37.376 14.469-45.228 32.985l-110.167 258.1-110.3-258.139c-7.766-18.391-25.048-31.024-45.095-32.86l-279.132-25.344 210.943-185.005c15.11-13.227 21.719-33.54 17.243-53.079l-62.127-273.882 240.561 143.832c8.617 5.117 18.219 7.719 27.907 7.719zM342.821 626.169s0-0.047-0.047-0.086zM681.088 626.294l0.047-0.086c0 0.047 0 0.047-0.047 0.086z" />
<glyph unicode="&#xe90b;" glyph-name="opened" d="M1005.462 626.188l-478.61 237.698c-9.356 4.648-20.35 4.648-29.708 0l-478.608-237.698c-11.292-5.616-18.536-17.258-18.536-29.908v-534.26c0-18.44 14.95-33.392 33.392-33.392h957.218c18.44 0 33.392 14.95 33.392 33.392v534.26c-0.002 12.354-6.952 24.146-18.54 29.908zM512 796.696l403.538-200.416c-17.968-8.924-386.488-191.948-403.538-200.416-17.468 8.676-385.48 191.448-403.538 200.416l403.538 200.416zM957.218 95.41h-890.436v447.002l296.738-147.372-216.592-148.726c-15.204-10.438-19.064-31.226-8.626-46.428s31.226-19.062 46.428-8.624l247.25 169.776 65.166-32.366c9.322-4.632 20.314-4.666 29.71 0l65.164 32.366 247.25-169.776c15.198-10.438 35.992-6.576 46.428 8.624 10.438 15.204 6.578 35.99-8.626 46.428l-216.594 148.726 296.74 147.374v-447.004z" />
<glyph unicode="&#xe90c;" glyph-name="shopping-cart" d="M329.922 297.992h0.047c0.039 0 0.078 0.008 0.117 0.008h543.914c13.391 0 25.164 8.883 28.844 21.758l120 420c2.586 9.055 0.773 18.789-4.891 26.305-5.672 7.516-14.539 11.937-23.953 11.937h-733.265l-21.445 96.508c-3.055 13.727-15.227 23.492-29.289 23.492h-180c-16.57 0-30-13.43-30-30s13.43-30 30-30h155.937c3.797-17.102 102.625-461.836 108.312-487.422-31.883-13.859-54.25-45.648-54.25-82.578 0-49.625 40.375-90 90-90h544c16.57 0 30 13.43 30 30s-13.43 30-30 30h-544c-16.539 0-30 13.461-30 30 0 16.516 13.414 29.953 29.922 29.992zM954.226 718l-102.859-360h-497.304l-80 360zM300 88c0-49.625 40.375-90 90-90s90 40.375 90 90-40.375 90-90 90-90-40.375-90-90zM390 118c16.539 0 30-13.461 30-30s-13.461-30-30-30-30 13.461-30 30 13.461 30 30 30zM724 88c0-49.625 40.375-90 90-90s90 40.375 90 90-40.375 90-90 90-90-40.375-90-90zM814 118c16.539 0 30-13.461 30-30s-13.461-30-30-30-30 13.461-30 30 13.461 30 30 30z" />
<glyph unicode="&#xe90d;" glyph-name="plus" d="M552 488v472h-80v-472h-472v-80h472v-472h80v472h472v80z" />
<glyph unicode="&#xe90e;" glyph-name="menu" d="M0 220.445h1024v-113.779h-1024v113.779zM0 504.888h1024v-113.779h-1024v113.779zM0 789.333h1024v-113.779h-1024v113.779z" />
<glyph unicode="&#xe90f;" glyph-name="menu-1" d="M981.333 406.219h-938.667c-23.552 0-42.667 19.115-42.667 42.667s19.115 42.667 42.667 42.667h938.667c23.552 0 42.667-19.115 42.667-42.667s-19.115-42.667-42.667-42.667zM981.333 733.333h-938.667c-23.552 0-42.667 19.115-42.667 42.667s19.115 42.667 42.667 42.667h938.667c23.552 0 42.667-19.115 42.667-42.667s-19.115-42.667-42.667-42.667zM981.333 79.115h-938.667c-23.552 0-42.667 19.115-42.667 42.667s19.115 42.667 42.667 42.667h938.667c23.552 0 42.667-19.115 42.667-42.667s-19.115-42.667-42.667-42.667z" />
<glyph unicode="&#xe910;" glyph-name="left-arrow" d="M1024 480.253h-900.515l202.973 202.975-45.614 45.614-280.844-280.842 280.844-280.846 45.614 45.616-202.973 202.973h900.515z" />
<glyph unicode="&#xe911;" glyph-name="right-arrow" d="M743.156 728.843l-45.612-45.614 202.973-202.975h-900.517v-64.509h900.517l-202.973-202.973 45.612-45.614 280.844 280.844z" />
<glyph unicode="&#xe912;" glyph-name="minus" d="M0 488h1024v-80h-1024v80z" />
<glyph unicode="&#xe913;" glyph-name="check-mark" d="M512.003 959.997c-282.32 0-512.003-229.68-512.003-511.997s229.683-511.997 512.003-511.997c282.317 0 511.997 229.68 511.997 511.997s-229.68 511.997-511.997 511.997zM512.003 19.937c-236.039 0-428.069 192.024-428.069 428.063 0 236.035 192.031 428.063 428.069 428.063 236.035 0 428.063-192.027 428.063-428.063 0-236.039-192.027-428.063-428.063-428.063zM733.491 644.509l-303.995-303.998-138.988 138.988c-16.391 16.387-42.961 16.387-59.351 0-16.387-16.391-16.387-42.961 0-59.351l168.663-168.663c8.195-8.192 18.935-12.291 29.676-12.291s21.48 4.099 29.676 12.291l333.671 333.671c16.387 16.391 16.387 42.961 0 59.351-16.391 16.391-42.964 16.391-59.351 0.003z" />
<glyph unicode="&#xe914;" glyph-name="right-arrow-1" d="M743.156 728.843l-45.612-45.614 202.973-202.975h-900.517v-64.509h900.517l-202.973-202.973 45.612-45.614 280.844 280.844z" />
<glyph unicode="&#xe915;" glyph-name="phone" d="M735.946-64c-33.055 0-65.829 5.844-97.878 17.487-141.19 51.29-272.245 134.826-379 241.58s-190.292 237.81-241.58 379c-16.481 45.374-21.345 92.212-14.451 139.218 6.458 44.030 23.513 86.774 49.324 123.613 25.925 37 60.488 67.775 99.95 88.996 42.082 22.629 88.014 34.105 136.524 34.105 15.087 0 28.127-10.542 31.289-25.293l50.226-234.388c2.274-10.614-0.988-21.657-8.662-29.333l-85.822-85.82c80.961-160.965 212.331-292.336 373.297-373.297l85.82 85.822c7.676 7.674 18.721 10.932 29.333 8.662l234.388-50.226c14.753-3.162 25.293-16.201 25.293-31.289 0-48.51-11.476-94.444-34.107-136.526-21.221-39.462-51.996-74.025-88.996-99.95-36.836-25.811-79.581-42.866-123.613-49.324-13.797-2.026-27.593-3.036-41.334-3.038zM263.267 894.603c-63.987-7.064-120.781-40.602-158.495-94.43-42.41-60.528-52.3-134.974-27.133-204.256 98.604-271.441 310.837-483.674 582.278-582.278 69.279-25.167 143.726-15.279 204.256 27.133 53.828 37.714 87.366 94.508 94.43 158.495l-190.674 40.858-89.628-89.628c-9.538-9.538-24.029-12.072-36.233-6.336-190.372 89.436-344.47 243.534-433.906 433.906-5.734 12.205-3.202 26.697 6.336 36.233l89.628 89.628z" />
<glyph unicode="&#xe916;" glyph-name="placeholder" d="M512 960c-211.776 0-384-172.224-384-384 0-266.176 346.624-615.872 361.344-630.656 6.272-6.208 14.464-9.344 22.656-9.344s16.384 3.136 22.656 9.344c14.72 14.784 361.344 364.48 361.344 630.656 0 211.776-172.224 384-384 384zM512 14.272c-76.416 81.792-320 358.4-320 561.728 0 176.448 143.552 320 320 320s320-143.552 320-320c0-203.136-243.584-479.936-320-561.728zM512 768c-105.856 0-192-86.144-192-192s86.144-192 192-192c105.856 0 192 86.144 192 192s-86.144 192-192 192zM512 448c-70.592 0-128 57.408-128 128s57.408 128 128 128 128-57.408 128-128-57.408-128-128-128z" />
<glyph unicode="&#xe917;" glyph-name="calendar" d="M914.286 850.286h-109.714v73.142c0 20.199-16.374 36.572-36.572 36.572s-36.572-16.374-36.572-36.572v-73.142h-438.857v73.142c0 20.199-16.374 36.572-36.57 36.572s-36.572-16.374-36.572-36.572v-73.142h-109.714c-60.594 0-109.714-49.121-109.714-109.714v-694.857c0-60.594 49.121-109.714 109.714-109.714h804.572c60.594 0 109.714 49.121 109.714 109.714v694.857c0 60.594-49.121 109.714-109.714 109.714zM950.856 45.714c0-20.199-16.374-36.572-36.572-36.572h-804.569c-20.199 0-36.572 16.374-36.572 36.572v475.429h877.714v-475.429zM950.856 594.285h-877.714v146.286c0 20.199 16.374 36.572 36.572 36.572h109.714v-73.142c0-20.199 16.374-36.572 36.572-36.572s36.572 16.374 36.572 36.572v73.142h438.857v-73.142c0-20.199 16.374-36.572 36.572-36.572s36.572 16.374 36.572 36.572v73.142h109.714c20.199 0 36.572-16.374 36.572-36.572v-146.286zM292.571 448.001h-73.142c-20.199 0-36.572-16.374-36.572-36.572s16.374-36.572 36.572-36.572h73.142c20.199 0 36.572 16.374 36.572 36.572s-16.374 36.572-36.572 36.572zM548.571 448.001h-73.142c-20.199 0-36.572-16.374-36.572-36.572s16.374-36.572 36.572-36.572h73.142c20.199 0 36.572 16.374 36.572 36.572s-16.374 36.572-36.572 36.572zM804.572 448.001h-73.142c-20.199 0-36.572-16.374-36.572-36.572s16.374-36.572 36.572-36.572h73.142c20.199 0 36.572 16.374 36.572 36.572-0.002 20.199-16.376 36.572-36.572 36.572zM292.571 301.715h-73.142c-20.199 0-36.572-16.374-36.572-36.572s16.374-36.572 36.572-36.572h73.142c20.199 0 36.572 16.374 36.572 36.572s-16.374 36.572-36.572 36.572zM548.571 301.715h-73.142c-20.199 0-36.572-16.374-36.572-36.572s16.374-36.572 36.572-36.572h73.142c20.199 0 36.572 16.374 36.572 36.572s-16.374 36.572-36.572 36.572zM804.572 301.715h-73.142c-20.199 0-36.572-16.374-36.572-36.572s16.374-36.572 36.572-36.572h73.142c20.199 0 36.572 16.374 36.572 36.572-0.002 20.199-16.376 36.572-36.572 36.572zM292.571 155.428h-73.142c-20.199 0-36.572-16.374-36.572-36.572s16.374-36.57 36.572-36.57h73.142c20.199 0 36.572 16.374 36.572 36.572s-16.374 36.57-36.572 36.57zM548.571 155.428h-73.142c-20.199 0-36.572-16.374-36.572-36.572s16.374-36.572 36.572-36.572h73.142c20.199 0 36.572 16.374 36.572 36.572s-16.374 36.572-36.572 36.572zM804.572 155.428h-73.142c-20.199 0-36.572-16.374-36.572-36.572s16.374-36.572 36.572-36.572h73.142c20.199 0 36.572 16.374 36.572 36.572s-16.376 36.572-36.572 36.572z" />
<glyph unicode="&#xe918;" glyph-name="right-quotes-symbol" d="M1023.77 646.23c0 0.111 0.012 0.222 0.012 0.333 0 134.626-109.133 243.759-243.759 243.759s-243.757-109.131-243.757-243.759c0-134.628 109.143-243.759 243.759-243.759 27.668 0 54.152 4.823 78.934 13.321-54.842-314.611-300.179-517.503-72.754-350.518 252.183 185.167 237.848 573.519 237.566 580.624zM243.759 402.805c27.668 0 54.152 4.823 78.946 13.321-54.856-314.611-300.193-517.503-72.766-350.518 252.183 185.165 237.85 573.517 237.566 580.622 0 0.111 0.012 0.222 0.012 0.333 0 134.626-109.131 243.759-243.757 243.759-134.628 0-243.759-109.131-243.759-243.759s109.143-243.757 243.759-243.757z" />
<glyph unicode="&#xe919;" glyph-name="add" d="M1007.484 464.516h-478.968v478.968c0 9.121-7.395 16.516-16.516 16.516s-16.516-7.395-16.516-16.516v-478.968h-478.968c-9.121 0-16.516-7.395-16.516-16.516s7.395-16.516 16.516-16.516h478.968v-478.968c0-9.121 7.395-16.516 16.516-16.516s16.516 7.395 16.516 16.516v478.968h478.968c9.121 0 16.516 7.395 16.516 16.516s-7.395 16.516-16.516 16.516z" />
<glyph unicode="&#xe91a;" glyph-name="right-arrow-2" d="M1007.633 487.786l-369.803 369.811c-10.556 10.556-24.626 16.351-39.628 16.351-15.019 0-29.080-5.803-39.636-16.351l-33.575-33.584c-10.548-10.54-16.359-24.617-16.359-39.628 0-15.002 5.811-29.554 16.359-40.094l215.738-216.212h-685.408c-30.903 0-55.321-24.193-55.321-55.104v-47.478c0-30.911 24.418-57.543 55.321-57.543h687.856l-218.177-217.419c-10.548-10.556-16.359-24.251-16.359-39.261 0-14.994 5.811-28.888 16.359-39.436l33.575-33.475c10.556-10.556 24.617-16.309 39.636-16.309 15.002 0 29.071 5.828 39.628 16.384l369.803 369.803c10.581 10.59 16.401 24.726 16.359 39.753 0.033 15.077-5.778 29.221-16.367 39.794z" />
<glyph unicode="&#xe91b;" glyph-name="long-arrow-pointing-to-the-right" d="M1018.068 463.359l-227.55 207.411c-6.322 5.135-13.234 6.123-20.741 2.962-7.499-3.165-11.264-8.89-11.264-17.19v-132.742h-739.55c-5.533 0-10.079-1.775-13.63-5.33-3.549-3.553-5.332-8.099-5.332-13.628v-113.775c0-5.527 1.775-10.073 5.33-13.622 3.56-3.553 8.105-5.328 13.63-5.328h739.556v-132.74c0-7.912 3.771-13.637 11.266-17.182 7.514-3.174 14.425-1.974 20.748 3.545l227.55 209.793c3.95 3.948 5.92 8.68 5.92 14.216 0 5.123-1.982 9.66-5.932 13.61z" />
<glyph unicode="&#xe91c;" glyph-name="instagram" d="M746.811 960h-469.624c-152.843 0-277.187-124.344-277.187-277.187v-469.632c0-152.836 124.344-277.179 277.187-277.179h469.632c152.836 0 277.179 124.344 277.179 277.179v469.632c0 152.843-124.344 277.187-277.187 277.187zM963.967 213.181c0-119.734-97.414-217.148-217.156-217.148h-469.624c-119.742 0-217.156 97.414-217.156 217.148v469.632c0 119.742 97.414 217.156 217.156 217.156h469.632c119.734 0 217.148-97.414 217.148-217.156zM511.999 727.993c-154.39 0-279.992-125.601-279.992-279.992s125.601-279.992 279.992-279.992 279.992 125.601 279.992 279.992-125.601 279.992-279.992 279.992zM511.999 228.040c-121.281 0-219.961 98.672-219.961 219.961 0 121.281 98.68 219.961 219.961 219.961 121.289 0 219.961-98.68 219.961-219.961 0-121.289-98.672-219.961-219.961-219.961zM798.686 827.43c-45.625 0-82.734-37.117-82.734-82.734 0-45.625 37.109-82.742 82.734-82.742s82.742 37.117 82.742 82.742-37.117 82.734-82.742 82.734zM798.686 721.993c-12.516 0-22.703 10.187-22.703 22.703 0 12.523 10.187 22.703 22.703 22.703 12.523 0 22.711-10.18 22.711-22.703 0-12.516-10.187-22.703-22.711-22.703z" />
<glyph unicode="&#xe91d;" glyph-name="right-arrow-3" d="M1012.268 476.314c-0.012 0.012-0.022 0.026-0.036 0.038l-209.008 208c-15.658 15.582-40.984 15.524-56.57-0.136-15.584-15.658-15.524-40.984 0.134-56.568l140.328-139.648h-847.116c-22.092 0-40-17.908-40-40s17.908-40 40-40h847.114l-140.324-139.648c-15.658-15.584-15.718-40.91-0.134-56.568 15.586-15.662 40.914-15.716 56.57-0.136l209.008 208c0.012 0.012 0.022 0.026 0.036 0.038 15.666 15.636 15.616 41.044-0.002 56.628z" />
<glyph unicode="&#xe91e;" glyph-name="download" d="M844 356v-240h-664v240h-180v-420h1024v420zM572 540v420h-120v-420h-120l180-270 180 270z" />
<glyph unicode="&#xe91f;" glyph-name="check-mark-1" d="M738.328 610.461c15.625-15.625 15.625-40.953 0-56.57l-268.344-268.352c-15.625-15.617-40.945-15.617-56.57 0l-127.742 127.75c-15.625 15.617-15.625 40.945 0 56.563 15.617 15.625 40.945 15.625 56.563 0l99.461-99.461 240.063 240.070c15.625 15.617 40.953 15.617 56.57 0zM1024 448c0-283.008-229.031-512-512-512-283.008 0-512 229.031-512 512 0 283.008 229.031 512 512 512 283.008 0 512-229.031 512-512zM944 448c0 238.789-193.242 432-432 432-238.789 0-432-193.242-432-432 0-238.789 193.242-432 432-432 238.789 0 432 193.242 432 432z" />
<glyph unicode="&#xe920;" d="M16.79 86.558l61.936 254.582c30.785 102.624 128.818 169.872 235.64 161.65 178.882-13.765 440.725-28.864 553.896-10.316 16.195 2.651 32.313-4.418 41.419-18.077 14.005-21.007 6.493-49.746-16.243-60.745-65.951-31.89-205.056-84.72-380.49-70.1l-26.127-256.993h-302.167l-21.804 195.211-45.338-195.211z" />
<glyph unicode="&#xe921;" d="M486.822 69.767h-302.167c-8.558 0-15.734 6.426-16.685 14.927l-10.921 97.86-23.197-99.8c-1.758-7.607-8.539-12.987-16.348-12.987h-100.713c-5.158 0-10.018 2.363-13.207 6.416-3.179 4.044-4.322 9.336-3.112 14.341l61.936 254.582c33.033 110.165 139.375 183.147 253.247 174.425 269.374-20.738 464.681-24.455 549.872-10.489 22.582 3.65 45.376-6.234 58.122-25.329 9.442-14.178 12.276-31.727 7.8-48.152-4.428-16.224-15.628-29.729-30.699-37.029-66.518-32.149-201.752-83.26-372.757-72.896l-24.475-240.789c-0.864-8.558-8.088-15.081-16.694-15.081zM199.668 103.348h271.987l24.59 241.912c0.932 9.087 8.818 16.012 18.097 15.013 170.861-14.158 306.24 36.808 371.778 68.496 6.445 3.112 11.037 8.664 12.938 15.638 1.931 7.070 0.701 14.6-3.343 20.69-5.427 8.136-15.023 12.477-24.744 10.806-112.585-18.385-365.505-4.639-557.912 10.163-97.985 7.617-189.976-55.423-218.254-149.739l-56.662-232.979h66.037l42.321 182.224c1.844 7.963 9.375 13.428 17.328 12.948 8.165-0.471 14.792-6.762 15.705-14.879z" />
<glyph unicode="&#xe922;" d="M252.45 282.47c-23.476 28.413-7.242 73.414 29.431 77.141 1.815 0.192 3.66 0.288 5.533 0.288 18.855 0 35.444-9.644 45.145-24.254 9.701 14.61 26.29 24.254 45.145 24.254 1.873 0 3.717-0.096 5.542-0.288 36.664-3.717 52.897-48.719 29.421-77.141l-80.109-96.957z" />
<glyph unicode="&#xe923;" d="M332.559 168.722c-5.004 0-9.759 2.228-12.938 6.099l-80.109 96.957c-15.301 18.49-19.067 43.906-9.874 66.335 8.847 21.603 27.75 35.886 50.525 38.21 19.028 1.796 38.028-3.986 52.388-15.868 14.36 11.882 33.725 17.664 52.35 15.868 22.822-2.334 41.716-16.608 50.573-38.21 9.192-22.429 5.427-47.835-9.874-66.335l-80.109-96.957c-3.17-3.871-7.924-6.099-12.929-6.099zM287.413 343.109c-1.306 0-2.603-0.067-3.89-0.192-14.716-1.508-20.863-12.775-22.832-17.539-3.506-8.578-4.13-21.545 4.687-32.217l67.18-81.291 67.18 81.291c8.827 10.672 8.193 23.639 4.687 32.217-1.969 4.764-8.117 16.031-22.88 17.539-12.967 1.374-27.299-4.966-35.002-16.569-6.224-9.346-21.737-9.346-27.971 0-6.964 10.499-18.625 16.761-31.16 16.761z" />
<glyph unicode="&#xe924;" d="M482.058 683.352c0-68.247-55.318-123.564-123.564-123.564-68.237 0-123.564 55.318-123.564 123.564 0 68.237 55.327 123.564 123.564 123.564 68.247 0 123.564-55.327 123.564-123.564z" />
<glyph unicode="&#xe925;" d="M358.493 542.998c-77.391 0-140.345 62.964-140.345 140.354s62.954 140.345 140.345 140.345c77.391 0 140.354-62.954 140.354-140.345s-62.964-140.354-140.354-140.354zM358.493 790.126c-58.872 0-106.774-47.902-106.774-106.774 0-58.881 47.902-106.783 106.774-106.783 58.881 0 106.783 47.902 106.783 106.783 0 58.872-47.902 106.774-106.783 106.774z" />
<glyph unicode="&#xe926;" d="M806.634 652.461c0-59.832-48.507-108.34-108.34-108.34s-108.34 48.507-108.34 108.34c0 59.832 48.507 108.33 108.34 108.33s108.34-48.498 108.34-108.33z" />
<glyph unicode="&#xe927;" d="M698.295 527.341c-68.986 0-125.111 56.124-125.111 125.111 0 68.996 56.124 125.13 125.111 125.13 68.996 0 125.12-56.134 125.12-125.13 0-68.986-56.124-125.111-125.12-125.111zM698.295 744.010c-50.476 0-91.54-41.063-91.54-91.559 0-50.467 41.063-91.54 91.54-91.54 50.486 0 91.549 41.073 91.549 91.54 0 50.496-41.063 91.559-91.549 91.559z" />
<glyph unicode="&#xe928;" d="M924.829 364.145l82.376-277.587h-123.564l-61.782 133.429v-133.429h-267.895l20.767 195.211s205.94 0 350.098 82.376z" />
<glyph unicode="&#xe929;" d="M1007.205 69.767h-123.555c-6.541 0-12.497 3.804-15.234 9.74l-29.767 64.279v-57.229c0-9.279-7.511-16.79-16.79-16.79h-267.895c-4.755 0-9.298 2.017-12.477 5.552-3.199 3.544-4.716 8.28-4.217 13.006l20.777 195.211c0.903 8.539 8.097 15.013 16.685 15.013 2.017 0 203.279 1.037 341.77 80.167 4.457 2.555 9.836 2.949 14.571 0.999 4.774-1.902 8.395-5.879 9.855-10.806l82.376-277.587c1.508-5.062 0.528-10.556-2.632-14.802-3.189-4.246-8.174-6.753-13.467-6.753zM894.37 103.348h90.339l-70.1 236.207c-122.661-62.589-276.252-72.655-324.75-74.259l-17.223-161.947h232.442v116.639c0 7.876 5.475 14.696 13.179 16.387 7.636 1.662 15.522-2.19 18.836-9.346z" />
<glyph unicode="&#xe92a;" d="M900.62 485.953v239.299c0 28.010 27.010 50.715 55.010 50.715 28.010 0 50.715-22.705 50.715-50.715v-374.641l-194.030-253.577v-122.701h-211.905v245.392l160.543 147.245 63.296 97.823c15.197 23.473 45.602 31.779 70.611 19.27 29.041-14.51 39.196-50.928 21.856-78.382l-65.781-104.149-114.516-122.701z" />
<glyph unicode="&#xe92b;" d="M812.315-43.33h-211.905c-9.761 0-17.663 7.912-17.663 17.663v245.392c0 4.951 2.071 9.66 5.729 13.015l158.866 145.709 62.073 95.944c16.228 25.050 45.461 37.013 73.532 32.032v218.827c0 36.427 33.962 68.368 72.673 68.368 37.701 0 68.378-30.668 68.378-68.368v-374.641c0-3.88-1.273-7.649-3.638-10.741l-190.382-248.818v-116.719c0-9.751-7.902-17.663-17.663-17.663zM618.063-8.004h176.599v105.038c0 3.88 1.273 7.649 3.638 10.731l190.382 248.828v368.659c0 18.229-14.824 33.052-33.052 33.052-19.563 0-37.357-15.753-37.357-33.052v-235.863c10.438-9.195 18.128-21.301 21.917-34.932 5.487-19.704 2.364-40.924-8.549-58.213l-65.771-104.149c-0.586-0.93-1.283-1.809-2.021-2.617l-114.526-122.701c-6.669-7.134-17.825-7.518-24.969-0.859-7.124 6.659-7.498 17.835-0.859 24.948l113.405 121.499 64.872 102.744c5.699 9.003 7.265 19.603 4.406 29.859-2.87 10.266-9.68 18.532-19.219 23.291-16.956 8.488-37.559 2.87-47.876-13.065l-63.306-97.834c-0.829-1.253-1.789-2.405-2.89-3.405l-154.814-142.001v-219.959z" />
<glyph unicode="&#xe92c;" d="M123.611 485.953v239.299c0 43.248-35.195 50.715-63.195 50.715-25.1-7.467-42.763-22.705-42.763-50.715v-374.641l194.252-253.577v-122.701h211.915v245.392l-168.728 147.245-63.296 97.823c-15.187 23.473-45.602 31.779-70.611 19.27-29.031-14.51-39.186-50.928-21.856-78.382l65.781-104.149 114.526-122.701z" />
<glyph unicode="&#xe92d;" d="M423.821-43.33h-211.915c-9.761 0-17.663 7.912-17.663 17.663v116.719l-190.605 248.818c-2.364 3.082-3.638 6.861-3.638 10.741v374.641c0 32.992 19.664 57.011 55.374 67.641 1.637 0.475 3.335 0.728 5.042 0.728 72.976 0 80.858-47.805 80.858-68.368v-217.847c25.454 1.435 50.715-10.388 65.357-33.012l61.952-95.752 166.848-145.608c3.84-3.355 6.053-8.205 6.053-13.308v-245.392c-0.010-9.751-7.902-17.663-17.663-17.663zM229.568-8.004h176.589v219.706l-162.675 141.961c-1.243 1.071-2.324 2.324-3.223 3.719l-63.296 97.834c-10.307 15.915-30.92 21.533-47.886 13.055-9.519-4.759-16.329-13.035-19.199-23.281-2.86-10.266-1.314-20.876 4.385-29.869l64.892-102.754 113.385-121.489c6.639-7.134 6.265-18.31-0.859-24.959-7.154-6.659-18.3-6.245-24.969 0.869l-114.516 122.701c-0.738 0.798-1.425 1.677-2.011 2.607l-65.792 104.159c-10.923 17.289-14.025 38.519-8.538 58.223 4.739 16.966 15.501 31.587 30.092 41.156v229.619c0 16.794-5.275 32.345-42.925 33.022-24.504-8.064-27.717-21.816-27.717-33.022v-368.659l190.615-248.828c2.364-3.072 3.638-6.851 3.638-10.731v-105.038z" />
<glyph unicode="&#xe92e;" d="M753.93 671.374c0-138.434-112.212-250.657-250.647-250.657s-250.647 112.223-250.647 250.657c0 138.424 112.212 250.647 250.647 250.647s250.647-112.223 250.647-250.647z" />
<glyph unicode="&#xe92f;" d="M503.284 403.054c-147.953 0-268.299 120.367-268.299 268.31 0 147.953 120.357 268.31 268.299 268.31s268.299-120.357 268.299-268.31c0-147.943-120.347-268.31-268.299-268.31zM503.284 904.368c-128.461 0-232.984-104.533-232.984-232.994 0-128.471 104.523-232.994 232.984-232.994s232.984 104.523 232.984 232.994c0 128.461-104.523 232.994-232.984 232.994z" />
<glyph unicode="&#xe930;" d="M750.98 662.543h-495.392c-9.761 0-17.653 7.912-17.653 17.663s7.892 17.653 17.653 17.653h495.392c9.761 0 17.663-7.902 17.663-17.653s-7.902-17.663-17.663-17.663z" />
<glyph unicode="&#xe931;" d="M527.899 408.45c-3.587 0-7.195 1.081-10.337 3.345-7.892 5.709-9.67 16.743-3.961 24.655 206.944 286.528-4.446 459.106-13.54 466.321-7.629 6.043-8.943 17.138-2.91 24.787 6.022 7.659 17.087 8.983 24.767 2.961 2.496-1.97 247.514-200.174 20.31-514.753-3.456-4.769-8.852-7.316-14.328-7.316z" />
<glyph unicode="&#xe932;" d="M478.679 408.45c-5.487 0-10.883 2.546-14.339 7.316-227.204 314.579 17.815 512.782 20.321 514.753 7.69 6.022 18.744 4.699 24.767-2.961 6.032-7.649 4.719-18.744-2.92-24.787-9.084-7.215-220.474-179.793-13.53-466.321 5.709-7.912 3.931-18.946-3.971-24.655-3.143-2.263-6.74-3.345-10.327-3.345z" />
<glyph unicode="&#xe933;" d="M916.902-46.934h-810.938c-39.98 0-72.402 32.412-72.402 72.402v486.66c0 39.99 32.422 72.402 72.402 72.402h810.938c39.98 0 72.402-32.412 72.402-72.402v-486.66c0-39.99-32.422-72.402-72.402-72.402z" />
<glyph unicode="&#xe934;" d="M916.902-64.004h-810.938c-49.336 0-89.463 40.137-89.463 89.473v486.66c0 49.336 40.127 89.473 89.463 89.473h810.938c49.326 0 89.463-40.137 89.463-89.473v-486.66c0-49.336-40.127-89.473-89.463-89.473zM105.965 567.471c-30.518 0-55.332-24.824-55.332-55.342v-486.66c0-30.508 24.814-55.332 55.332-55.332h810.938c30.508 0 55.332 24.824 55.332 55.332v486.66c0 30.508-24.814 55.342-55.332 55.342z" />
<glyph unicode="&#xe935;" d="M989.305 379.736h-955.742c-9.434 0-17.061 7.637-17.061 17.061s7.627 17.070 17.061 17.070h955.742c9.434 0 17.061-7.646 17.061-17.070s-7.627-17.061-17.061-17.061z" />
<glyph unicode="&#xe936;" d="M699.168 482.129h-409.6c-9.434 0-17.070 7.646-17.070 17.070s7.637 17.070 17.070 17.070h409.6c9.434 0 17.061-7.646 17.061-17.070s-7.627-17.070-17.061-17.070z" />
<glyph unicode="&#xe937;" d="M682.098 610.137c0 98.965-80.225 179.199-179.199 179.199-98.965 0-179.199-80.234-179.199-179.199 0-41.934 14.512-80.41 38.633-110.938h281.133c24.121 30.527 38.633 69.004 38.633 110.938z" />
<glyph unicode="&#xe938;" d="M643.465 482.129h-281.133c-5.225 0-10.156 2.402-13.389 6.494-27.676 35.029-42.314 77.051-42.314 121.514 0 108.223 88.057 196.26 196.27 196.26s196.27-88.037 196.27-196.26c0-44.463-14.639-86.484-42.314-121.514-3.242-4.092-8.174-6.494-13.389-6.494zM370.848 516.27h264.102c19.717 27.578 30.088 59.863 30.088 93.867 0 89.395-72.734 162.129-162.139 162.129-89.395 0-162.129-72.734-162.129-162.129 0-34.004 10.361-66.289 30.078-93.867z" />
<glyph unicode="&#xe939;" d="M494.363 840.537c-9.434 0-17.061 7.637-17.061 17.061v85.332c0 9.434 7.627 17.070 17.061 17.070s17.070-7.637 17.070-17.070v-85.332c0-9.424-7.637-17.061-17.070-17.061z" />
<glyph unicode="&#xe93a;" d="M656.355 830.156l47.9 70.625z" />
<glyph unicode="&#xe93b;" d="M656.336 813.086c-3.301 0-6.641 0.957-9.57 2.939-7.793 5.293-9.834 15.918-4.531 23.711l47.9 70.625c5.303 7.793 15.918 9.834 23.701 4.531 7.803-5.283 9.834-15.908 4.531-23.701l-47.9-70.625c-3.301-4.854-8.672-7.48-14.131-7.48z" />
<glyph unicode="&#xe93c;" d="M749.471 690l83.662 16.777z" />
<glyph unicode="&#xe93d;" d="M749.451 672.93c-7.969 0-15.088 5.605-16.719 13.711-1.855 9.248 4.131 18.242 13.389 20.098l83.662 16.777c9.229 1.816 18.213-4.121 20.078-13.369 1.855-9.248-4.131-18.242-13.379-20.098l-83.662-16.777c-1.133-0.234-2.256-0.342-3.369-0.342z" />
<glyph unicode="&#xe93e;" d="M239.266 690l-83.672 16.777z" />
<glyph unicode="&#xe93f;" d="M239.285 672.93c-1.123 0-2.236 0.107-3.369 0.342l-83.672 16.777c-9.248 1.855-15.225 10.85-13.379 20.088 1.865 9.258 10.83 15.195 20.078 13.379l83.672-16.787c9.248-1.846 15.225-10.85 13.379-20.088-1.631-8.105-8.74-13.711-16.709-13.711z" />
<glyph unicode="&#xe940;" d="M349.441 830.156l-47.9 70.625z" />
<glyph unicode="&#xe941;" d="M349.471 813.086c-5.469 0-10.84 2.617-14.131 7.49l-47.91 70.615c-5.293 7.803-3.262 18.418 4.531 23.711 7.803 5.303 18.398 3.262 23.701-4.541l47.91-70.615c5.293-7.803 3.262-18.418-4.531-23.711-2.939-1.992-6.279-2.949-9.57-2.949z" />
<glyph unicode="&#xe942;" d="M528.504 550.4c-40.791 0-73.955 33.174-73.955 73.955s33.164 73.955 73.955 73.955c9.434 0 17.061-7.646 17.061-17.070s-7.627-17.061-17.061-17.061c-21.953 0-39.824-17.861-39.824-39.824 0-21.953 17.871-39.824 39.824-39.824 9.434 0 17.061-7.637 17.061-17.061 0-9.434-7.627-17.070-17.061-17.070z" />
<glyph unicode="&#xe943;" d="M511.434 607.295h-68.271c-9.434 0-17.061 7.637-17.061 17.061s7.627 17.070 17.061 17.070h68.271c9.434 0 17.070-7.646 17.070-17.070s-7.637-17.061-17.070-17.061z" />
<glyph unicode="&#xe944;" d="M767.43 72.529c0-28.271-22.92-51.191-51.201-51.191-28.271 0-51.191 22.92-51.191 51.191 0 28.281 22.92 51.201 51.191 51.201 28.281 0 51.201-22.92 51.201-51.201z" />
<glyph unicode="&#xe945;" d="M716.229 4.268c-37.646 0-68.262 30.625-68.262 68.262 0 37.646 30.615 68.271 68.262 68.271 37.656 0 68.271-30.625 68.271-68.271 0-37.637-30.615-68.262-68.271-68.262zM716.229 106.67c-18.809 0-34.131-15.313-34.131-34.141 0-18.818 15.322-34.131 34.131-34.131 18.818 0 34.141 15.313 34.141 34.131 0 18.828-15.322 34.141-34.141 34.141z" />
<glyph unicode="&#xe946;" d="M921.033 72.529c0-28.271-22.92-51.191-51.201-51.191-28.271 0-51.201 22.92-51.201 51.191 0 28.281 22.93 51.201 51.201 51.201 28.281 0 51.201-22.92 51.201-51.201z" />
<glyph unicode="&#xe947;" d="M869.832 4.268c-37.646 0-68.262 30.625-68.262 68.262 0 37.646 30.615 68.271 68.262 68.271s68.271-30.625 68.271-68.271c0-37.637-30.625-68.262-68.271-68.262zM869.832 106.67c-18.818 0-34.131-15.313-34.131-34.141 0-18.818 15.313-34.131 34.131-34.131s34.131 15.313 34.131 34.131c0 18.828-15.313 34.141-34.131 34.141z" />
<glyph unicode="&#xe948;" glyph-name="play-button-1" d="M512 960c-282.767 0-512-229.233-512-512s229.233-512 512-512 512 229.233 512 512c-0.317 282.633-229.367 511.683-512 512zM512 4.267c-245.067 0-443.733 198.667-443.733 443.733s198.667 443.733 443.733 443.733 443.733-198.667 443.733-443.733c-0.283-244.95-198.783-443.45-443.733-443.733zM766.192 478.55l-477.867 238.933c-10.583 5.292-23.15 4.717-33.217-1.508-10.058-6.217-16.183-17.208-16.175-29.042v-307.2c0-18.85 15.283-34.133 34.133-34.133s34.133 15.283 34.133 34.133v251.975l367.408-183.708-372.8-186.4c-8.175 12.758-23.783 18.6-38.325 14.342-14.55-4.25-24.542-17.592-24.55-32.742v-34.133c-0.008-11.833 6.117-22.825 16.175-29.042 10.067-6.225 22.633-6.8 33.217-1.508l477.867 238.933c11.583 5.775 18.908 17.608 18.908 30.55s-7.325 24.775-18.908 30.55z" />
<glyph unicode="&#xe949;" glyph-name="house-insurance" d="M957.98 395.080c-67.736 8.732-130.926 38.052-182.396 82.796h52.182v254.904h-163l-226.296 227.22-210.672-211.532v58.626h-29.998v-74.354h-59.998v133.532h59.998v-28.54h29.998v58.538h-119.994v-163.528h-60.024v-254.684h45.11v-449.68h387.924v29.936h-357.924v29.648h467.288c4.27-10.532 9.26-19.766 14.926-29.648h-30.276v-29.936h50.524c36.826-47.032 90.046-80.704 148.606-92.376 57.324 11.428 109.432 42.812 146.222 88.246 36.138 44.592 56.040 100.76 56.040 158.156v210.28zM77.778 507.688v195.104h146.868l213.824 214.696 213.838-214.708h145.462v-194.904l-81.398 0.16-277.92 279.276-276.922-279.298zM512.804 117.96h-149.96v284.836h149.96zM580.152 117.96h-37.35v314.834h-209.954v-314.834h-209.958v360.098h51.182l264.418 266.688 265.412-266.708 68.428-0.16c-55.986-49.236-126.544-78.356-200.636-85.196v-210.278c0-21.852 2.892-43.52 8.458-64.444zM946.222 182.402c0-102.812-72.25-193.020-172.264-215.714-100.014 22.696-172.264 112.902-172.264 215.714v184.054c62.87 9.63 122.068 35.1 172.264 74.092 50.2-38.996 109.394-64.464 172.264-74.092zM638.966 205.786c0-74.436 60.558-134.994 134.994-134.994s134.994 60.558 134.994 134.994-60.558 134.994-134.994 134.994-134.994-60.558-134.994-134.994zM773.96 310.782c57.894 0 104.994-47.1 104.994-104.994s-47.102-104.994-104.994-104.994-104.994 47.1-104.994 104.994c-0.002 57.894 47.1 104.994 104.994 104.994zM829.108 222.908l-21.214 21.212-48.48-48.482-19.392 19.392-21.214-21.212 40.606-40.604zM512.754 28.376h30.056v29.938h-29.998zM107.804 672.782h29.998v-29.998h-29.998zM167.8 672.782h29.998v-29.998h-29.998zM651.778 672.782h29.998v-29.998h-29.998zM453.318 297.802h29.998v-29.998h-29.998zM182.8 282.834h119.994v120.090h-119.994zM212.798 372.926h59.996v-60.092h-59.996z" />
<glyph unicode="&#xe94a;" glyph-name="user" d="M504.702 466.735c67.765 0 126.437 24.305 174.39 72.258 47.937 47.945 72.25 106.609 72.25 174.382 0 67.75-24.305 126.422-72.258 174.382-47.953 47.937-106.625 72.242-174.382 72.242-67.773 0-126.437-24.305-174.382-72.25s-72.258-106.617-72.258-174.375c0-67.773 24.312-126.445 72.258-174.39 47.961-47.937 106.633-72.25 174.382-72.25zM372.757 845.321c36.789 36.789 79.945 54.672 131.945 54.672 51.992 0 95.156-17.883 131.953-54.672 36.789-36.797 54.68-79.961 54.68-131.945 0-52-17.891-95.156-54.68-131.953-36.797-36.797-79.961-54.68-131.953-54.68-51.984 0-95.14 17.891-131.945 54.68-36.797 36.789-54.687 79.953-54.687 131.953 0 51.984 17.891 95.148 54.687 131.945zM936.256 172.595c-1.383 19.953-4.18 41.719-8.297 64.703-4.156 23.156-9.508 45.047-15.914 65.055-6.625 20.68-15.617 41.101-26.75 60.672-11.539 20.312-25.102 38-40.32 52.555-15.914 15.227-35.398 27.469-57.93 36.398-22.453 8.883-47.336 13.383-73.953 13.383-10.453 0-20.562-4.289-40.086-17-12.016-7.836-26.070-16.898-41.758-26.922-13.414-8.547-31.586-16.555-54.031-23.805-21.898-7.086-44.133-10.68-66.086-10.68-21.937 0-44.172 3.594-66.086 10.68-22.422 7.242-40.601 15.25-53.992 23.797-15.539 9.93-29.602 18.992-41.797 26.937-19.508 12.711-29.617 17-40.070 17-26.625 0-51.5-4.508-73.945-13.398-22.516-8.914-42.008-21.156-57.937-36.398-15.219-14.562-28.781-32.242-40.312-52.547-11.117-19.57-20.117-39.984-26.742-60.68-6.398-20.008-11.75-41.891-15.906-65.047-4.125-22.953-6.914-44.726-8.297-64.726-1.359-19.555-2.047-39.906-2.047-60.469 0-53.453 16.992-96.726 50.5-128.64 33.094-31.492 76.875-47.461 130.133-47.461h493.062c53.242 0 97.023 15.969 130.125 47.461 33.516 31.891 50.508 75.18 50.508 128.648-0.008 20.633-0.703 40.984-2.070 60.484zM846.444 26.939c-21.867-20.812-50.898-30.93-88.758-30.93h-493.054c-37.867 0-66.898 10.117-88.758 30.922-21.445 20.414-31.867 48.281-31.867 85.172 0 19.187 0.633 38.133 1.898 56.32 1.234 17.844 3.758 37.445 7.5 58.273 3.695 20.57 8.398 39.875 13.992 57.351 5.367 16.758 12.687 33.351 21.766 49.336 8.664 15.234 18.633 28.305 29.633 38.836 10.289 9.852 23.258 17.914 38.539 23.961 14.133 5.594 30.016 8.656 47.258 9.117 2.102-1.117 5.844-3.25 11.906-7.203 12.336-8.039 26.555-17.211 42.273-27.25 17.719-11.297 40.547-21.5 67.82-30.305 27.883-9.016 56.32-13.594 84.547-13.594s56.672 4.578 84.539 13.586c27.297 8.82 50.117 19.016 67.859 30.328 16.086 10.281 29.906 19.187 42.242 27.234 6.062 3.945 9.805 6.086 11.906 7.203 17.25-0.461 33.133-3.523 47.273-9.117 15.273-6.047 28.242-14.117 38.531-23.961 11-10.523 20.969-23.594 29.633-38.844 9.086-15.977 16.414-32.578 21.773-49.32 5.602-17.5 10.312-36.797 14-57.351 3.734-20.867 6.266-40.476 7.5-58.289v-0.016c1.273-18.117 1.914-37.055 1.922-56.297-0.008-36.898-10.43-64.758-31.875-85.164z" />
<glyph unicode="&#xe94b;" glyph-name="chat-comment-oval-speech-bubble-with-text-lines" d="M672 416h-320c-17.664 0-32-14.336-32-32s14.336-32 32-32h320c17.664 0 32 14.336 32 32s-14.336 32-32 32zM736 608h-448c-17.664 0-32-14.336-32-32s14.336-32 32-32h448c17.664 0 32 14.336 32 32s-14.336 32-32 32zM512 960c-282.751 0-512-200.575-512-448 0-141.409 75.040-267.296 192-349.408v-226.592l224.288 136.097c31.041-5.122 62.976-8.097 95.712-8.097 282.785 0 512 200.575 512 448s-229.215 448-512 448zM512 128c-37.376 0-73.472 4.352-108.161 11.744l-150.657-90.559 2.016 148.415c-115.486 69.471-191.199 184.287-191.199 314.4 0 212.063 200.575 384 448 384s448-171.937 448-384-200.575-384-448-384z" />
<glyph unicode="&#xe94c;" glyph-name="phone-call-1" d="M803.403 440.194c-6.927 0-13.638-2.814-18.4-7.576s-7.576-11.473-7.576-18.4 2.814-13.638 7.576-18.4 11.473-7.576 18.4-7.576 13.638 2.814 18.4 7.576 7.576 11.473 7.576 18.4-2.814 13.638-7.576 18.4c-4.979 4.979-11.689 7.576-18.4 7.576zM560.089 743.037c-3.031-14.071 6.061-27.708 20.132-30.739 1.732-0.433 3.68-0.649 5.412-0.649 12.122 0 22.729 8.442 25.327 20.565 3.031 14.071-6.061 27.708-20.132 30.739s-27.708-5.845-30.739-19.915zM745.605 641.729c-11.906-8.009-14.937-24.245-6.927-36.151 4.979-7.36 13.205-11.473 21.647-11.473 4.979 0 9.958 1.515 14.504 4.546 11.906 8.009 14.937 24.245 6.927 36.151-8.226 11.689-24.245 14.937-36.151 6.927zM662.696 710.567c-8.009-11.906-4.979-28.141 6.927-36.151 4.546-3.031 9.525-4.329 14.504-4.329 8.442 0 16.452 3.896 21.647 11.473 8.009 11.906 4.979 28.141-6.927 36.151-11.906 7.793-28.141 4.762-36.151-7.144zM776.344 516.175c2.598-12.339 13.421-20.565 25.327-20.565 1.732 0 3.464 0.216 5.412 0.649 14.071 3.031 23.162 16.668 20.132 30.739s-16.668 23.162-30.739 20.132c-14.071-3.247-23.162-16.885-20.132-30.955zM478.263 765.334c-6.927 0-13.638-2.814-18.4-7.576s-7.576-11.473-7.576-18.4 2.814-13.638 7.576-18.4c4.762-4.762 11.473-7.576 18.4-7.576s13.638 2.814 18.4 7.576 7.576 11.473 7.576 18.4-2.814 13.638-7.576 18.4c-4.762 4.762-11.473 7.576-18.4 7.576zM991.3 433.916c-6.927 0-13.638-2.814-18.4-7.576s-7.576-11.473-7.576-18.4 2.814-13.638 7.576-18.4 11.473-7.576 18.4-7.576 13.638 2.814 18.4 7.576 7.576 11.473 7.576 18.4-2.814 13.638-7.576 18.4c-4.979 4.979-11.689 7.576-18.4 7.576zM974.199 698.877c-6.494 12.772-22.080 17.967-34.852 11.689-12.772-6.494-17.967-22.080-11.689-34.852 4.546-9.092 13.638-14.287 23.162-14.287 3.896 0 7.793 0.866 11.689 2.814 12.988 6.278 18.184 21.864 11.689 34.635zM739.977 863.612c3.68-1.948 7.793-2.814 11.689-2.814 9.525 0 18.617 5.195 23.162 14.287 6.494 12.772 1.299 28.358-11.689 34.852v0c-12.772 6.494-28.358 1.299-34.852-11.689-6.278-12.555-1.299-28.141 11.689-34.635zM566.583 907.772c0.433 0 0.649 0 0.866 0 13.854 0 25.544 11.040 25.977 25.111 0.433 14.287-10.607 26.409-25.111 26.842-14.287 0.649-26.409-10.607-26.842-24.894s10.824-26.409 25.111-27.059zM655.553 895c2.165-0.649 4.329-0.866 6.494-0.866 11.689 0 22.080 7.793 25.111 19.482 3.464 13.854-4.762 28.141-18.833 31.605-13.854 3.464-28.141-4.762-31.605-18.833-3.464-13.638 4.979-27.708 18.833-31.388zM919.648 783.95c-9.092 11.257-25.327 12.988-36.584 3.896-11.040-9.092-12.988-25.327-3.896-36.584 5.195-6.278 12.555-9.741 20.132-9.741 5.845 0 11.473 1.948 16.235 5.845 11.257 9.092 12.988 25.327 4.113 36.584zM972.034 502.321c0.433-14.071 12.122-25.111 25.977-25.111 0.216 0 0.649 0 0.866 0 14.287 0.433 25.544 12.555 25.111 26.842s-12.555 25.544-26.842 25.111c-14.504-0.433-25.76-12.339-25.111-26.842zM984.373 571.809c2.165 0 4.329 0.216 6.494 0.866 13.854 3.464 22.297 17.751 18.833 31.605v0c-3.464 13.854-17.751 22.297-31.605 18.833s-22.297-17.751-18.833-31.605v0c2.814-11.906 13.421-19.699 25.111-19.699zM815.525 814.906c4.762-3.896 10.607-5.845 16.235-5.845 7.576 0 15.153 3.247 20.132 9.741 9.092 11.257 7.36 27.492-3.896 36.584s-27.492 7.36-36.584-3.896c-8.875-11.257-7.144-27.492 4.113-36.584zM472.202 901.278c6.927 0 13.638 2.814 18.4 7.576s7.576 11.473 7.576 18.4-2.814 13.638-7.576 18.4-11.473 7.576-18.4 7.576-13.638-2.814-18.4-7.576-7.576-11.473-7.576-18.4 2.814-13.638 7.576-18.4c4.762-4.979 11.473-7.576 18.4-7.576zM738.028 289.747c-19.482 19.266-42.645 29.657-66.673 29.657s-46.974-10.174-66.457-29.44l-5.195-4.979c-19.049-18.833-38.532-38.099-57.581-57.798-3.68 1.948-7.144 3.68-10.824 5.412-8.875 4.329-17.101 8.442-24.678 13.205-57.798 36.367-111.050 84.857-162.57 148.066-24.678 30.306-41.995 57.365-54.118 84.424 16.885 16.235 33.337 33.12 49.572 49.355l12.555 12.555c40.913 41.13 40.697 94.165-0.216 135.511-12.339 12.339-24.894 24.894-37.017 37.017-5.412 5.412-10.824 10.824-16.019 16.019-5.628 5.628-11.473 11.473-17.101 17.101-12.339 12.339-24.894 25.111-37.666 37.666-19.482 19.266-42.645 29.44-66.673 29.44s-46.974-10.174-66.457-29.44c-9.308-9.092-18.4-18.4-27.492-27.492-12.988-13.205-26.409-26.842-40.047-39.614-25.544-24.245-39.831-54.984-42.645-91.134-4.329-56.715 11.473-108.019 25.76-146.335 32.254-86.589 81.393-168.631 150.231-250.674 85.939-102.174 189.412-183.135 307.606-240.716 65.158-31.605 121.007-47.84 175.558-50.871 4.113-0.216 8.009-0.433 11.906-0.433 46.325 0 84.424 16.235 113.214 48.49 12.339 13.638 25.327 26.409 39.398 40.047 6.927 6.927 14.287 13.854 21.431 20.998 40.697 41.13 40.913 94.165 0.433 134.862-36.151 37.45-72.734 74.033-108.236 109.102zM809.464 83.016c-6.711-6.927-13.854-13.638-20.781-20.348-13.854-13.638-28.358-27.492-41.779-42.645-20.781-23.162-46.974-32.904-83.341-30.955-47.407 2.598-96.979 17.101-155.643 45.675-111.699 54.334-209.328 130.749-290.504 227.295-65.158 77.497-111.266 154.344-141.356 235.304-18.4 49.572-25.327 87.887-22.729 124.255 1.732 23.595 10.174 41.779 26.626 57.365 14.071 13.421 27.708 27.275 41.13 40.697 8.875 8.875 17.967 18.184 26.842 26.842 6.711 6.494 17.318 14.504 30.090 14.504s23.379-7.793 30.306-14.504c12.555-12.339 25.111-24.894 37.233-37.233 5.845-5.845 11.473-11.473 17.318-17.318 5.412-5.412 10.824-10.824 16.235-16.019 12.122-12.122 24.678-24.461 36.8-36.8 20.781-20.998 20.998-41.346 0.216-62.344l-12.555-12.772c-17.534-17.751-35.718-35.934-53.901-53.468-9.308-9.092-18.617-24.461-9.308-46.541 14.071-33.986 34.635-66.673 64.292-103.257 55.2-67.756 112.565-119.925 175.342-159.323 9.741-6.061 19.699-11.040 29.44-15.802 5.628-2.814 11.040-5.412 16.235-8.226 6.711-3.68 13.421-5.412 20.132-5.412v0c10.824 0 20.781 4.546 29.44 13.638 20.348 20.998 41.346 41.779 61.911 62.127l5.195 4.979c6.711 6.711 17.318 14.504 29.873 14.504s23.379-8.009 30.090-14.504c35.285-35.068 71.868-71.436 108.452-108.236 19.266-20.132 19.266-40.913-1.299-61.478z" />
<glyph unicode="&#xe94d;" glyph-name="telephone" d="M208.66 279.314c101-120.733 222.581-215.791 361.349-283.053 52.834-25.038 123.491-54.743 202.211-59.836 4.88-0.212 9.548-0.424 14.429-0.424 52.834 0 95.271 18.248 129.857 55.804 0.212 0.212 0.637 0.637 0.849 1.061 12.307 14.853 26.311 28.22 40.952 42.437 9.973 9.548 20.157 19.521 29.918 29.706 45.195 47.105 45.195 106.941-0.424 152.56l-127.523 127.523c-21.643 22.492-47.529 34.374-74.689 34.374s-53.258-11.882-75.538-34.162l-75.962-75.962c-7.002 4.031-14.216 7.639-21.006 11.034-8.487 4.244-16.338 8.275-23.34 12.731-69.172 43.922-131.978 101.212-192.027 174.84-30.342 38.405-50.712 70.657-64.928 103.546 19.945 18.036 38.617 36.92 56.653 55.38 6.366 6.578 12.943 13.155 19.521 19.733 22.916 22.916 35.223 49.439 35.223 76.386s-12.094 53.47-35.223 76.386l-63.231 63.231c-7.426 7.426-14.429 14.641-21.643 22.067-14.004 14.429-28.645 29.281-43.073 42.649-21.855 21.431-47.529 32.676-74.689 32.676-26.947 0-52.834-11.246-75.538-32.889l-79.357-79.357c-28.857-28.857-45.195-63.867-48.59-104.395-4.031-50.712 5.305-104.607 29.494-169.747 37.132-100.787 93.149-194.361 176.325-294.299zM54.614 738.904c2.546 28.22 13.368 51.773 33.737 72.143l78.932 78.932c12.307 11.882 25.886 18.036 39.042 18.036 12.943 0 26.099-6.153 38.193-18.46 14.216-13.155 27.584-26.947 42.012-41.588 7.214-7.426 14.641-14.853 22.067-22.492l63.231-63.231c13.155-13.155 19.945-26.523 19.945-39.678s-6.79-26.523-19.945-39.678c-6.578-6.578-13.155-13.368-19.733-19.945-19.733-19.945-38.193-38.83-58.563-56.865-0.424-0.424-0.637-0.637-1.061-1.061-17.611-17.611-14.853-34.374-10.609-47.105 0.212-0.637 0.424-1.061 0.637-1.697 16.338-39.254 39.042-76.598 74.477-121.157 63.655-78.508 130.705-139.405 204.545-186.298 9.124-5.941 18.884-10.609 28.008-15.277 8.487-4.244 16.338-8.275 23.34-12.731 0.849-0.424 1.485-0.849 2.334-1.273 7.002-3.607 13.792-5.305 20.582-5.305 16.975 0 28.008 10.821 31.615 14.429l79.357 79.357c12.307 12.307 25.674 18.884 38.83 18.884 16.126 0 29.281-9.973 37.557-18.884l127.947-127.735c25.462-25.462 25.25-53.046-0.637-79.993-8.912-9.548-18.248-18.672-28.22-28.22-14.853-14.429-30.342-29.281-44.346-46.044-24.401-26.311-53.47-38.617-91.027-38.617-3.607 0-7.426 0.212-11.034 0.424-69.596 4.456-134.312 31.615-182.903 54.743-131.978 63.867-247.831 154.47-343.95 269.474-79.145 95.271-132.403 183.964-167.625 279.022-21.855 58.351-30.13 105.243-26.735 147.892z" />
<glyph unicode="&#xe94e;" glyph-name="factory" d="M963.996-33.996v364.882l-206.499-59v59l-211.419-60.404-21.080 281.078v104.439h30v30h-59.998v64.476c12.774-2.042 25.808-1.382 39.018 2.014 12.916-60.544 66.948-105.583 130.559-105.583 36.328 0 70.164 14.33 95.141 39.822 28.95-26.696 67.010-41.73 106.777-41.73 86.845 0 157.499 70.654 157.499 157.499 0 35.962-12.448 71.138-35.050 99.049l-23.314-18.88c18.556-22.914 28.366-50.636 28.366-80.168 0-70.304-57.196-127.499-127.499-127.499-36.848 0-71.886 15.946-96.129 43.748l-12.118 13.896-11.14-14.692c-19.776-26.084-49.856-41.042-82.532-41.042-54.402 0-99.763 42.478-103.271 96.705l-1.386 21.434-19.646-8.684c-15.898-7.028-30.8-8.788-45.274-5.32v24.956h-30v-119.999h-30.006v90.711h-30v-27.418c-17.458 6.192-30 22.864-30 42.42 0 12.062 4.782 23.446 13.462 32.052 8.326 8.254 19.18 12.834 30.648 12.948h0.954l0.128 30c-0.406 0.002-0.812 0.002-1.222 0h-133.509l-0.518-14.462c-0.772-21.514-14.63-57-59.942-65.414v28.284h-30v-129.123h-29.998v90.713h-30v-27.418c-17.458 6.192-30 22.864-30 42.42 0 12.062 4.782 23.446 13.462 32.052 8.524 8.452 19.68 13 31.472 12.948l15.682-0.136-0.562 15.672c-0.738 20.57 6.716 40.046 20.988 54.84 14.25 14.77 33.412 22.906 53.956 22.906h269.998c34.118 0 63.958-23.022 72.57-55.984l5.428-20.778 17.64 12.248c17.358 12.052 37.74 18.422 58.946 18.422 24.552 0 48.362-8.754 67.040-24.654l14.048-11.958 8.84 16.192c22.394 41.024 65.308 66.508 111.991 66.508 29.538 0 57.258-9.808 80.168-28.364l18.882 23.312c-27.908 22.608-63.084 35.056-99.051 35.056-51.914 0-100.049-25.51-129.315-67.564-21.508 13.938-46.736 21.472-72.604 21.472-20.912 0-41.21-4.808-59.624-14.026-17.076 36.172-53.794 60.118-94.957 60.118h-269.998c-28.76 0-55.588-11.392-75.544-32.076-16.658-17.266-26.68-39.084-28.952-62.544-14.286-2.762-27.492-9.728-38.16-20.306-14.408-14.284-22.342-33.232-22.342-53.356 0-36.22 25.808-66.522 60-73.49v-32.226h-60v-30h30v-104.439l-25.834-344.478 29.916-2.244 15.836 211.163h110.165l33.75-449.997h-177.665l15.668 208.917-29.916 2.244-15.836-211.161h-61.086v-30h1024v30zM933.997 291.114v-325.11h-176.499v274.682zM727.5 291.114v-325.11h-158.583l-20.544 273.932zM538.831-33.996h-177.665l33.75 449.997h110.165zM405 656h89.999v-90.001h-89.999zM403.918 535.998h92.165l6.75-89.997h-105.665zM225.003 656v-90.001h-90.001v90.001zM127.169 446.001l6.75 89.997h92.167l6.75-89.997zM225.003 686v70.472c52.67 7.564 81.314 43.62 88.287 80.242h46.75c-9.762-12.956-15.040-28.586-15.040-45 0-36.218 25.808-66.522 60-73.49v-32.226h-60v-30h30v-104.439l-21.418-285.558h-77.164l-21.416 285.558v104.439h30v30h-60zM278.668 236.002h72.664l-20.25-269.998h-32.164zM856.873 509.459c-0.144 22.014-7.946 43.424-22.398 60.55-18.024 21.36-44.406 33.61-72.382 33.61-52.262 0-94.779-42.518-94.779-94.779 0-30.156 13.862-57.8 38.032-75.848 19.708-14.716 43.534-21.096 67.278-18.386 9.022-31.506 38.008-54.292 72.17-54.292 41.398 0 75.078 33.678 75.078 75.076 0 21.002-8.438 40.464-23.76 54.798-10.916 10.216-24.656 16.874-39.238 19.272zM844.795 390.313c-24.044 0-43.82 18.79-45.018 42.778l-0.952 19.054-18.292-5.42c-19.76-5.86-40.624-2.1-57.24 10.306-16.51 12.328-25.98 31.212-25.98 51.81 0 35.72 29.060 64.78 64.78 64.78 19.118 0 37.142-8.368 49.454-22.958 12.374-14.662 17.62-33.912 14.394-52.816l-3.2-18.754 18.982 1.264c12.62 0.84 24.666-3.448 33.892-12.078 9.192-8.6 14.254-20.282 14.254-32.892 0.004-24.854-20.218-45.074-45.074-45.074zM667.5 192.002h30v-195.999h-30zM813.999 192.002h30v-195.999h-30zM873.999 192.002h30v-195.999h-30zM607.5 192.002h30v-195.999h-30zM896.497 862.497h30v-30h-30zM165.001 626h30v-30h-30zM434.999 626h30v-30h-30z" />
<glyph unicode="&#xe94f;" glyph-name="wrench" d="M971.736 250.064c-50.194 50.082-126.136 65.506-191.944 39.915l-28.811 28.747c2.286 1.722 4.488 3.608 6.57 5.686l71.886 71.73c11.784 11.756 18.271 27.435 18.271 44.151s-6.488 32.395-18.271 44.151h0.002c-13.064 13.034-30.513 19.077-47.651 18.147 0.428 3.138 0.66 6.324 0.66 9.548 0 18.533-7.202 35.911-20.279 48.93-12.688 12.658-29.109 19.369-45.759 20.139 7.94 24.095 2.36 51.806-16.659 70.834-15.55 15.516-36.709 22.081-57.024 19.733 0.296 2.624 0.466 5.278 0.466 7.96 0 18.533-7.188 35.911-20.237 48.932-27.015 26.955-70.972 26.953-97.987 0l-45.947-45.845-3.556 3.548c-17.195 17.159-45.207 17.135-62.438-0.058l-15.248-15.214-44.437 44.377c25.639 65.69 10.17 141.46-40.031 191.548-41.795 41.703-101.661 60.014-160.111 48.978-8.366-1.574-33.819-6.364-39.043-25.839-5.108-19.047 13.056-34.661 21.787-42.165 0.884-0.76 71.74-71.326 71.74-71.326 18.397-18.357 19.633-47.905 2.992-67.712-19.875-16.625-49.532-15.398-67.956 2.986 0 0-70.722 70.7-71.486 71.584-7.522 8.71-23.181 26.825-42.229 21.711-19.471-5.236-24.271-30.619-25.847-38.953-11.062-58.366 7.294-118.116 49.104-159.833 50.194-50.080 126.134-65.504 191.944-39.915l51.446-51.33c-6.28-16.223-9.208-34.079-8.134-52.010 2.44-40.245-18.893-79.718-71.338-131.994l-54.628-54.506c-18.489 9.484-41.785 6.526-57.256-8.91l-76.51-76.34c-9.272-9.25-14.376-21.583-14.376-34.729s5.106-25.479 14.374-34.727l211.279-210.807c9.582-9.56 22.169-14.34 34.757-14.34s25.175 4.78 34.759 14.342l76.51 76.34c9.272 9.25 14.376 21.583 14.376 34.729 0 7.948-1.878 15.594-5.402 22.445l92.927 92.721c27.545 27.481 32.021 26.737 61.196 21.867 4.91-0.82 10.476-1.75 16.737-2.642 25.467-3.658 55.038 9.282 71.818 18.243l33.911-33.845c-8.952-22.969-13.108-47.953-12.058-72.882 0.338-8.062 6.98-14.37 14.974-14.37 0.212 0 0.428 0.004 0.642 0.014 8.276 0.348 14.704 7.338 14.356 15.616-0.998 23.763 3.658 47.553 13.468 68.796 2.636 5.712 1.43 12.462-3.024 16.905l-240.018 239.539c9.762 18.393 15.288 37.957 15.896 57.164 17.275-14.852 39.999-26.951 62.214-32.923 18.191-4.89 35.213-5.686 50.498-2.522-0.002-0.17-0.012-0.338-0.012-0.508 0.012-18.507 7.218-35.867 20.265-48.848 12.274-12.278 28.405-19.361 45.729-20.155-1.782-5.854-2.706-12.010-2.706-18.311 0-16.715 6.488-32.395 18.269-44.149 12.188-12.16 28.191-18.239 44.201-18.237 2.438 0 4.874 0.158 7.3 0.442l45.095-44.995c4.436-4.426 11.154-5.628 16.847-3.016 56.596 25.949 124.096 13.986 167.955-29.775 34.773-34.693 50.032-84.415 40.819-133.016-1.542-8.142-3.29-12.406-4.416-14.49-2.156 1.414-5.694 4.578-11.476 11.276-1.298 1.504-73.004 73.212-73.004 73.212-29.761 29.699-77.914 31.329-109.623 3.708-0.51-0.446-0.988-0.922-1.436-1.432-27.707-31.663-26.073-79.75 3.718-109.475l84.627-84.221c-2.108-1.128-6.388-2.864-14.512-4.394-48.73-9.19-98.589 6.032-133.346 40.715-11.026 11.050-20.185 23.615-27.225 37.351-3.78 7.374-12.816 10.284-20.191 6.506-7.372-3.78-10.284-12.82-6.504-20.191 8.462-16.507 19.457-31.599 32.707-44.877 33.785-33.709 79.368-52.136 126.472-52.134 11.174 0 22.435 1.038 33.641 3.152 8.366 1.574 33.819 6.364 39.043 25.839 5.108 19.045-13.056 34.661-21.787 42.165-0.884 0.76-71.74 71.326-71.74 71.326-18.397 18.357-19.633 47.905-2.992 67.712 19.875 16.625 49.532 15.396 67.956-2.986 0 0 70.722-70.7 71.486-71.584 7.524-8.712 23.193-26.833 42.229-21.711 19.467 5.236 24.267 30.619 25.843 38.953 11.068 58.36-7.29 118.11-49.098 159.829zM678.547 630.814c15.022-15.026 15.258-39.617 0.548-54.872l-48.214-48.108c-8.278 11.994-53.824 57.168-53.824 57.168l45.899 45.799c15.334 15.3 40.279 15.296 55.592 0.014zM546.159 707.426c15.332 15.298 40.283 15.294 55.606 0 7.372-7.354 11.43-17.189 11.43-27.695s-4.058-20.341-11.43-27.695l-45.947-45.845-55.56 55.436zM258.256 634.9c-4.432 4.424-11.148 5.626-16.845 3.016-56.602-25.947-124.098-13.986-167.955 29.775-34.773 34.693-50.032 84.415-40.819 133.016 1.542 8.142 3.29 12.406 4.416 14.49 2.156-1.414 5.694-4.578 11.476-11.276 1.298-1.504 73.004-73.212 73.004-73.212 29.765-29.701 77.916-31.331 109.623-3.708 0.51 0.444 0.988 0.924 1.436 1.432 27.707 31.663 26.073 79.75-3.718 109.475 0 0-83.197 82.067-84.627 84.221 2.108 1.128 6.388 2.864 14.512 4.394 48.724 9.196 98.587-6.032 133.37-40.739 43.841-43.743 55.83-111.055 29.835-167.499-2.628-5.708-1.42-12.448 3.026-16.887l51.56-51.492-55.892-55.766c-3.59-3.584-6.89-7.472-9.948-11.57zM607.871 504.876c-3.884-3.876-7.236-8.142-10.050-12.698-31.951-19.797-82.471 2.010-107.613 26.227l-3.118 3.106c-22.981 22.903-35.205 35.097-36.333 36.253-0.020 0.020-0.040 0.036-0.060 0.056-0.056 0.056-0.108 0.116-0.164 0.172-0.080 0.080-0.16 0.138-0.24 0.21-5.736 5.492-14.826 5.588-20.661 0.072-6.020-5.692-6.284-15.186-0.592-21.205 0.054-0.056 0.144-0.15 0.302-0.31 10.238-10.216 15.65-24.525 15.65-41.381 0-26.515-13.55-55.864-36.247-78.51-5.864-5.852-5.874-15.348-0.024-21.211 2.932-2.936 6.776-4.406 10.62-4.406 3.834 0 7.668 1.46 10.596 4.382 4.346 4.336 8.374 8.872 12.144 13.534l172.315-171.971c-17.467-8.198-34.375-12.41-45.219-10.85-5.926 0.846-11.306 1.744-16.051 2.536-34.757 5.8-50.332 6.686-87.323-30.221l-91.305-91.103-75.446 75.276c-5.864 5.852-15.362 5.842-21.211-0.024-5.852-5.864-5.84-15.362 0.026-21.211l86.007-85.815c0.002-0.002 0.006-0.006 0.008-0.010l0.026-0.026c3.588-3.58 5.564-8.372 5.564-13.492s-1.976-9.912-5.566-13.492l-76.514-76.342c-7.484-7.466-19.657-7.464-27.137 0l-211.277 210.805c-3.588 3.582-5.564 8.374-5.564 13.492s1.976 9.912 5.566 13.492l76.51 76.342c7.484 7.464 19.657 7.462 27.137 0l75.656-75.488c5.866-5.85 15.362-5.842 21.213 0.024 5.852 5.864 5.84 15.362-0.024 21.211l-65.016 64.87 52.912 52.796c59.154 58.966 83.109 105.335 80.097 155.037-1.518 25.363 7.824 51.382 24.375 67.902l92.375 92.167c5.452 5.444 14.64 5.466 20.059 0.058l111.883-111.635c2.638-2.632 5.27-5.236 7.866-7.804 12.424-12.29 30.333-30.009 35.203-39.457zM656.865 416.791c-10.544 0-20.413 4.064-27.819 11.474-7.38 7.344-11.45 17.157-11.458 27.631-0.006 10.502 4.068 20.355 11.47 27.743l56.316 56.188c7.664 7.648 17.733 11.472 27.801 11.472 10.070 0 20.139-3.824 27.803-11.472 0.006-0.004 0.010-0.010 0.016-0.014 7.386-7.352 11.456-17.181 11.456-27.681 0-10.492-4.064-20.317-11.458-27.683-0.006-0.006-0.012-0.010-0.016-0.016l-56.324-56.198c-7.376-7.38-17.245-11.444-27.787-11.444zM690.338 345.645c-6.102 6.086-9.46 14.224-9.46 22.913s3.36 16.827 9.464 22.917l71.83 71.726c6.352 6.338 14.696 9.506 23.039 9.506s16.687-3.168 23.039-9.506h0.002c6.1-6.086 9.458-14.224 9.458-22.913s-3.36-16.827-9.46-22.913l-71.886-71.73c-12.694-12.66-33.343-12.658-46.027 0z" />
<glyph unicode="&#xe950;" glyph-name="oil-platform" d="M1009 6c-44.85 0-68.498-11.418-89.36-21.492-19.71-9.518-38.328-18.508-76.314-18.508s-56.604 8.99-76.314 18.508c-20.862 10.074-44.51 21.492-89.36 21.492-44.848 0-68.494-11.418-89.356-21.492-19.71-9.518-38.326-18.508-76.31-18.508-37.982 0-56.598 8.99-76.308 18.508-20.86 10.074-44.506 21.492-89.352 21.492-44.848 0-68.494-11.418-89.356-21.492-19.708-9.518-38.324-18.508-76.308-18.508s-56.6 8.99-76.308 18.508c-20.862 10.074-44.506 21.492-89.354 21.492-8.284 0-15-6.714-15-15s6.716-15 15-15c37.984 0 56.6-8.99 76.308-18.508 20.862-10.074 44.506-21.492 89.354-21.492s68.492 11.418 89.354 21.492c19.71 9.518 38.326 18.508 76.31 18.508s56.6-8.99 76.308-18.508c20.862-10.074 44.506-21.492 89.352-21.492 44.848 0 68.494 11.418 89.356 21.492 19.71 9.518 38.326 18.508 76.31 18.508 37.986 0 56.604-8.99 76.314-18.508 20.862-10.074 44.508-21.492 89.36-21.492s68.498 11.418 89.36 21.492c19.71 9.518 38.328 18.508 76.314 18.508 8.284 0 15 6.714 15 15s-6.716 15-15 15zM905 330c-14.888 0-27-12.112-27-27v-92c0-14.888 12.112-27 27-27h92c14.888 0 27 12.112 27 27v92c0 14.888-12.112 27-27 27h-31v514.872c-0.032 4.892-2.686 10.748-8.44 13.498l-86.64 42.138c-21.082 10.256-46.378 6.010-62.95-10.564l-72.284-72.318c-5.856-5.86-5.854-15.356 0.006-21.212 5.858-5.856 15.356-5.856 21.212 0.006l10.006 10.012 20.69-83.95-83.922 20.684 11.462 11.468c5.856 5.86 5.854 15.356-0.006 21.212-5.86 5.858-15.358 5.858-21.212-0.006-78.724-78.844-162.136-165.050-239.272-239.392h-136.15v109.232c15.732-0.76 30.078 10.434 30 27v36c-0.026 16.838-15.162 28.982-31.676 27l-18.024 152.16 41.64-29.702c6.742-4.81 16.11-3.242 20.922 3.5 4.81 6.744 3.244 16.112-3.5 20.922l-104.65 74.65c-5.212 3.718-12.208 3.718-17.422 0l-104.652-74.652c-6.744-4.81-8.312-14.178-3.5-20.922 4.848-6.796 14.244-8.272 20.922-3.5l42.516 30.33-18.842-152.786c-16.538 2.11-31.74-10.204-31.736-27v-36c-0.088-15.652 14.084-28.72 30-27v-109.232h-65.498c-24.814 0-45-20.188-45-45v-123.804c-17.458-6.192-30-22.866-30-42.42v-46.224c-0.158-26.184 23.798-48.142 50.5-45v-94.92c-16.27 6.12-36.428 10.92-65.5 10.92-8.284 0-15-6.714-15-15s6.716-15 15-15c37.984 0 56.6-8.99 76.308-18.508 20.862-10.074 44.506-21.492 89.354-21.492 38.334 0 59.894 7.266 89.354 21.492 19.71 9.518 38.326 18.508 76.31 18.508s56.6-8.99 76.308-18.508c20.862-10.074 44.506-21.492 89.352-21.492 44.848 0 68.494 11.418 89.356 21.492 19.71 9.518 38.326 18.508 76.31 18.508 37.986 0 56.604-8.99 76.314-18.508 20.862-10.074 44.508-21.492 89.36-21.492s68.498 11.418 89.36 21.492c19.71 9.518 38.328 18.508 76.314 18.508 8.284 0 15 6.714 15 15s-6.716 15-15 15c-44.85 0-68.498-11.418-89.36-21.492-19.71-9.518-38.328-18.508-76.314-18.508s-56.604 8.99-76.314 18.508c-20.862 10.074-44.51 21.492-89.36 21.492-44.848 0-68.494-11.418-89.356-21.492-14.476-6.99-28.394-13.682-49.796-16.75v122.242c26.358-1.3 50.638 17.046 50.5 45v46.222c0 19.554-12.542 36.228-30 42.42v64.024l377 377v-478.666zM224.222 912.108l20.28 14.466 21.306-15.198 20.812-175.698h-84.154zM170.5 705.68h148.002v-30h-148.002zM215.020 591.062l73.482 43.352v-86.702zM248.554 536.448h-48.054v28.35zM200.5 617.328v28.352h48.056zM208.5 111.96c-8.066-1.232-17.168-1.96-27.838-1.96-34.028 0-52.51 7.218-70.162 15.566v108.434h98zM380.5 147.416c-9.906 1.616-21.14 2.584-34.174 2.584-44.848 0-68.494-11.418-89.356-21.492-6.060-2.926-12.022-5.8-18.47-8.382v113.874h142zM508.5 110.052c-35.618 0.542-53.734 9.24-72.822 18.456-7.704 3.72-15.79 7.622-25.178 11.066v94.426h98zM559 279c0-8.272-6.728-15-15-15h-469c-8.272 0-15 6.728-15 15v46.222c0 8.272 6.728 15 15 15h149.502c8.284 0 15 6.714 15 15s-6.716 15-15 15h-134.502v121.224c0 8.272 6.728 15 15 15h409c8.272 0 15-6.728 15-15v-121.224h-244.498c-8.284 0-15-6.714-15-15s6.716-15 15-15h259.498c8.272 0 15-6.728 15-15zM559 474.094v17.352c0 24.812-20.186 45-45 45h-16.932l68.098 68.132 24.584-99.736zM614.538 529.632l-20.694 83.958 83.96-20.694zM602.84 642.272l63.2 63.232 20.68-83.906zM715.422 630.516l-20.694 83.958 83.958-20.694zM816.304 731.398l-20.694 83.96 83.96-20.694zM904.36 819.454l-99.834 24.606 24.662 24.674c7.53 7.528 19.030 9.454 28.612 4.796l67.706-32.93zM994 300v-86h-86v86z" />
<glyph unicode="&#xe951;" glyph-name="valve" d="M608.688 571.86c-8.874-8.898-8.852-23.302 0.046-32.178 4.438-4.412 10.262-6.644 16.066-6.644 5.848 0 11.674 2.23 16.11 6.69 8.874 8.92 8.852 23.324-0.046 32.196-8.92 8.856-23.324 8.832-32.176-0.064zM383.362 571.63c-8.898-8.872-8.898-23.302 0-32.176 4.438-4.438 10.262-6.67 16.088-6.67s11.65 2.23 16.088 6.67c8.898 8.898 8.898 23.302 0 32.196-8.896 8.878-23.3 8.878-32.176-0.020zM511.84 804.694c12.584 0.022 22.756 10.218 22.732 22.778-0.022 12.564-10.218 22.756-22.778 22.732-12.562-0.022-22.732-10.218-22.732-22.778 0.024-12.56 10.218-22.756 22.778-22.732zM512.182 486.116c0.068 0 0.114 0 0.182 0 0.022 0 0.022 0 0.046 0 12.562 0.022 22.732 10.24 22.71 22.804-0.046 12.558-10.24 22.73-22.824 22.708-0.16 0-0.318 0-0.478 0-12.47-0.092-22.574-10.24-22.574-22.756 0-12.562 10.194-22.756 22.756-22.756 0.068 0 0.114 0 0.182 0zM399.314 757.908c5.848 0 11.674 2.208 16.11 6.668 8.874 8.898 8.874 23.302-0.022 32.176-8.898 8.874-23.302 8.874-32.176-0.022s-8.874-23.302 0.022-32.176c4.438-4.438 10.264-6.646 16.066-6.646zM671.334 645.678c12.562 0.022 22.732 10.218 22.71 22.804-0.022 12.562-10.218 22.73-22.802 22.708-12.562-0.022-22.732-10.218-22.71-22.802 0.024-12.562 10.218-22.734 22.802-22.71zM352.688 690.824c-12.562 0-22.732-10.192-22.732-22.756 0-12.582 10.194-22.756 22.778-22.756 12.562 0 22.732 10.194 22.732 22.778 0 12.566-10.194 22.734-22.778 22.734zM1001.244 284.728h-286.804c-8.372 32.668-38.062 56.888-73.302 56.888h-3.982v83.896c87.78 45.462 147.912 137.162 147.912 242.648-0.002 150.57-122.5 273.066-273.068 273.066s-273.066-122.496-273.066-273.066c0-105.486 60.132-197.186 147.912-242.648v-83.896h-3.982c-35.242 0-64.93-24.222-73.302-56.888h-286.806c-12.568 0-22.756-10.19-22.756-22.754v-227.556c0-12.566 10.188-22.756 22.756-22.756h286.804c8.372-32.668 38.060-56.888 73.302-56.888h258.276c35.242 0 64.93 24.222 73.302 56.888h286.804c12.568 0 22.756 10.19 22.756 22.756v227.556c0 12.564-10.188 22.754-22.756 22.754zM307.2 57.174h-261.688v182.044h261.688v-182.044zM284.444 668.16c0 125.476 102.082 227.556 227.556 227.556s227.556-102.080 227.556-227.556-102.082-227.556-227.556-227.556-227.556 102.080-227.556 227.556zM591.644 406.954v-65.336h-159.288v65.336c25.208-7.702 51.948-11.86 79.644-11.86s54.436 4.156 79.644 11.86zM671.288 261.974v-178.632h-79.644c-12.568 0-22.756-10.19-22.756-22.756s10.188-22.756 22.756-22.756h79.644v-7.396c0-16.626-13.526-30.152-30.152-30.152h-258.274c-16.626 0-30.152 13.526-30.152 30.152v155.306h56.89c12.568 0 22.756 10.19 22.756 22.756s-10.188 22.756-22.756 22.756h-56.888v34.702c0 16.626 13.526 30.152 30.152 30.152h258.274c16.626 0 30.152-13.526 30.152-30.152v-3.98zM978.488 57.174h-261.688v182.044h261.688v-182.044zM495.91 652.068c4.444-4.442 10.268-6.666 16.090-6.666s11.648 2.224 16.090 6.666l112.134 112.134c1.796 1.796 3.208 3.822 4.28 5.978 4.604 8.622 3.27 19.586-4.006 26.84-0.022 0-0.022 0-0.022 0-8.874 8.874-23.302 8.854-32.176-0.066-0.722-0.722-1.364-1.492-1.968-2.282l-110.424-110.422c-8.884-8.886-8.884-23.294 0.002-32.182zM542.912 231.254h-37.926c-12.568 0-22.756-10.19-22.756-22.756s10.188-22.756 22.756-22.756h37.926c12.568 0 22.756 10.19 22.756 22.756-0.002 12.566-10.188 22.756-22.756 22.756z" />
<glyph unicode="&#xe952;" d="M989-48.99h-954c-11.046 0-20 8.954-20 20v22c0 11.046 8.954 20 20 20h954c11.046 0 20-8.954 20-20v-22c0-11.046-8.954-20-20-20z" />
<glyph unicode="&#xe953;" d="M1009-17v-12c0-11.040-8.96-20-20-20h-954c-11.040 0-20 8.96-20 20v22c0 11.060 8.96 20 20 20h10v-10c0-11.040 8.96-20 20-20z" />
<glyph unicode="&#xe954;" d="M989 28.010h-225.212l-141.554 289.296v41.576h243.75v-29.986h-15c-8.286 0-15-6.716-15-15s6.714-15 15-15h15v-30h-15c-8.286 0-15-6.716-15-15s6.714-15 15-15h60c8.286 0 15 6.716 15 15s-6.714 15-15 15h-15v30h15c8.286 0 15 6.716 15 15s-6.714 15-15 15h-15c0.004 16.238-0.006 54.53-0.006 70.516 0 24.656-14.314 47.58-36.468 58.404l-237.276 115.916v35.778h88.362c8.286 0 15 6.716 15 15s-6.714 15-15 15h-88.362v151.46l224.108-109.48c11.928-5.828 19.636-18.172 19.636-31.448v-10.532h-85.34c-8.286 0-15-6.716-15-15s6.714-15 15-15h85.346v-29.998h-15c-8.286 0-15-6.716-15-15s6.714-15 15-15h60c8.286 0 15 6.716 15 15s-6.714 15-15 15h-15v44.998c0 0.040-0.006 0.076-0.006 0.116v25.416c0 24.656-14.314 47.58-36.468 58.404l-240.894 117.68-47.938 103.862 96.332 0.002c2.754 0 4.996-2.242 4.998-4.998l0.010-25.058h-14.994c-8.286 0-15-6.716-15-15s6.714-15 15-15h60c8.286 0 15 6.716 15 15s-6.714 15-15 15h-15.006l-0.010 25.070c-0.006 19.292-15.708 34.988-35 34.986l-310.006-0.006c-19.298-0.002-34.998-15.704-34.998-35v-25h-15c-8.284 0-15-6.716-15-15s6.716-15 15-15h60c8.284 0 15 6.716 15 15s-6.716 15-15 15h-15v25c0 2.756 2.244 5 5 5l96.318 0.002-47.934-103.854-96.566-47.178c-7.444-3.636-10.53-12.618-6.892-20.062 3.636-7.442 12.616-10.53 20.062-6.892l79.76 38.968v-151.456h-243.73v10.528c0 13.276 7.708 25.62 19.636 31.448l81.442 39.788c7.444 3.636 10.53 12.618 6.894 20.062s-12.618 10.53-20.062 6.894l-81.444-39.792c-22.152-10.824-36.466-33.748-36.466-58.402v-70.524h-15c-8.284 0-15-6.716-15-15s6.716-15 15-15h60c8.284 0 15 6.716 15 15s-6.716 15-15 15h-15v29.998h243.732v-35.784l-237.266-115.918c-22.152-10.824-36.466-33.748-36.466-58.402v-70.512h-15c-8.284 0-15-6.716-15-15s6.716-15 15-15h15v-30h-15c-8.284 0-15-6.716-15-15s6.716-15 15-15h60c8.284 0 15 6.716 15 15s-6.716 15-15 15h-15v30h15c8.284 0 15 6.716 15 15s-6.716 15-15 15h-15v29.986h108.32c8.284 0 15 6.716 15 15s-6.716 15-15 15h-108.32v10.526c0 13.276 7.708 25.62 19.636 31.448l224.094 109.482v-151.456h-65.114c-8.284 0-15-6.716-15-15s6.716-15 15-15h65.114v-41.6l-141.54-289.272h-225.212c-19.298 0-35-15.702-35-35v-22c0-19.298 15.702-35 35-35h954c19.298 0 35 15.702 35 35v22c0 19.298-15.702 35-35 35zM695.716 28.010l-59.16 65.346c-5.562 6.144-15.046 6.612-21.186 1.052-6.142-5.56-6.614-15.046-1.052-21.188l40.932-45.212h-286.494l143.244 158.242 55.25-61.034c2.96-3.272 7.036-4.934 11.126-4.934 3.59 0 7.192 1.282 10.062 3.88 6.142 5.56 6.614 15.044 1.054 21.186l-57.26 63.254 71.27 78.73 126.886-259.322zM592.234 358.882v-30.066h-160.482v30.066zM452.972 388.882l59.028 59.026 59.030-59.028h-118.058zM533.212 469.122l59.022 59.020v-118.042zM592.234 609.51v-30.148h-160.482v30.148zM452.976 639.51l59.024 59.022 59.024-59.022zM571.030 549.362l-59.030-59.028-59.030 59.028zM533.212 719.744l59.022 59.020v-118.042zM512 740.956l-59.036 59.034h118.072zM490.786 719.744l-59.034-59.032v118.064zM490.786 469.122l-59.034-59.032v118.064zM573.432 298.816l-61.432-67.864-61.434 67.864zM865.978 399.412v-10.53h-243.744v151.462l224.108-109.484c11.928-5.828 19.636-18.172 19.636-31.448zM537.636 929.988l46.154-99.996h-143.58l46.152 99.994zM420.498 287.332l71.27-78.73-163.476-180.592h-34.68zM994-28.99c0-2.756-2.242-5-5-5h-954c-2.756 0-5 2.244-5 5v22c0 2.756 2.244 5 5 5h954c2.758 0 5-2.244 5-5z" />
<glyph unicode="&#xe955;" glyph-name="town" d="M336 368h32v-32h-32zM272 368h32v-32h-32zM400 368h32v-32h-32zM400 304h32v-32h-32zM336 304h32v-32h-32zM272 304h32v-32h-32zM400 240h32v-32h-32zM336 240h32v-32h-32zM272 240h32v-32h-32zM144 304h32v-32h-32zM144 240h32v-32h-32zM688 688h-288v-96h288zM656 624h-224v32h224zM848 624h32v-32h-32zM912 624h32v-32h-32zM912 560h32v-32h-32zM848 560h32v-32h-32zM848 496h32v-32h-32zM912 496h32v-32h-32zM912 432h32v-32h-32zM848 432h32v-32h-32zM1008 752v48c0 61.744-50.256 112-112 112s-112-50.256-112-112v-48h32v-64h-32v-332.192c-11.408 23.568-21.984 47.504-32 71.68v324.512h-32v128h-48v64h-256v-64h-48v-128h-32v-320h-128v-64h-128v-298.96c-37.776-18.032-64-56.48-64-101.040v-16h992v32h-96v97.648c54.176 10.032 96 69.952 96 142.352v464h-32v64zM816 800c0 44.112 35.888 80 80 80s80-35.888 80-80v-16h-160zM848 752h32v-64h-32zM720 224v55.44l40.88 27.248-17.744 26.624-23.136-15.424v34.112h-32v-73.376l-20.688 20.688-22.624-22.624 43.312-43.312v-9.376h-99.216c43.36 71.040 80.384 146.304 110.272 224h9.904c29.872-77.696 66.912-152.96 110.272-224zM448 912h192v-32h-192zM400 848h288v-96h-32v64h-32v-64h-32v64h-32v-64h-32v64h-32v-64h-32v64h-32v-64h-32zM368 720h352v-240h-32v80h-288v-96h270.752c-31.152-81.936-70.336-161.152-116.752-235.44l-22.864-36.56h156.864v-113.6c-21.376 22-51.536 35.28-84.752 33.488-13.92 46.592-57.584 80.112-107.248 80.112v240h-128zM656 528v-32h-224v32zM240 400h224v-212.912c-36.576-10.864-65.584-39.6-75.888-76.944-15.184 2.816-30.768 2.384-45.648-1.104-17.632 40.112-57.696 66.96-102.464 66.96zM112 336h96v-164.72c-11.568-3.456-22.336-8.736-32-15.504v20.224h-32v-32h17.824c-17.216-16.816-29.104-39.056-32.688-64-0.368 0-0.768 0-1.136 0-5.44 0-10.752-0.528-16-1.28zM128 48c4.16 0 8.544-0.4 13.392-1.216l18.608-1.744v18.96c0 44.112 35.888 80 80 80 35.968 0 67.68-24.288 77.12-59.024l4.704-17.328 16.656 6.656c18.080 7.184 37.872 7.632 56.656 0.88l19.184-6.928 2.144 20.288c4.32 40.736 38.512 71.456 79.536 71.456 39.2 0 73.152-29.232 78.992-68l2.464-16.336 16.224 2.976c5.056 0.912 9.728 1.36 14.32 1.36 44.112 0 80-35.888 80-80v-16h-638.384c7.424 36.464 39.744 64 78.384 64zM720-16v208h66.8c10.192-58.096 47.52-101.936 93.2-110.384v-97.616zM896 112c-35.696 0-66.624 33.376-76.592 80h57.44l-22.848 36.56c-9.84 15.744-19.152 31.824-28.336 47.984 13.952 36.24 40.896 59.456 70.336 59.456 44.112 0 80-50.256 80-112s-35.888-112-80-112zM896 368c-30.88 0-59.36-16.336-80-43.488v331.488h160v-331.424c-20.352 26.752-48.672 43.424-80 43.424zM944 688h-32v64h32z" />
<glyph unicode="&#xe956;" glyph-name="spanner" d="M152.218 19.627c18.19-0.027 35.643 7.189 48.503 20.053 6.468 6.697 6.375 17.341-0.208 23.924s-17.228 6.676-23.924 0.208c-13.458-13.452-35.273-13.448-48.726 0.008s-13.454 35.27 0 48.726c13.454 13.456 35.268 13.46 48.726 0.008 6.697-6.468 17.341-6.375 23.924 0.208s6.676 17.228 0.208 23.924c-21.944 21.973-55.913 26.461-82.811 10.942s-40.014-47.173-31.975-77.169c8.039-29.995 35.228-50.847 66.282-50.834zM261.513 180.446c4.526 0.001 8.866 1.8 12.066 5.001l12.134 12.134c6.468 6.697 6.375 17.341-0.208 23.924s-17.228 6.676-23.924 0.208l-12.134-12.134c-4.879-4.881-6.339-12.22-3.698-18.597s8.862-10.535 15.764-10.536zM322.219 241.152c4.526 0.001 8.866 1.8 12.066 5.001l230.724 230.724c6.468 6.697 6.375 17.341-0.208 23.924s-17.228 6.676-23.924 0.208l-230.724-230.724c-4.879-4.881-6.339-12.22-3.698-18.597s8.862-10.535 15.764-10.536zM0 86.903c-1.116-39.637 13.854-78.040 41.501-106.465s65.619-44.454 105.272-44.439h4.215c40.48 0.956 78.739 18.706 105.609 48.998l452.267 506.436c79.675-26.224 167.258-8.979 231.044 45.492s94.531 138.274 81.105 221.072c-2.028 12.872-11.13 23.505-23.535 27.494-12.185 3.982-25.574 0.746-34.594-8.363l-133.12-133.12c-3.703-3.706-8.89-5.528-14.097-4.949l-87.603 9.557c-8.084 0.894-14.466 7.276-15.36 15.36l-9.557 87.62c-0.57 5.201 1.25 10.38 4.949 14.080l133.12 133.12c9.079 9.037 12.312 22.408 8.363 34.594-4.006 12.401-14.652 21.49-27.529 23.501-82.798 13.426-166.601-17.319-221.072-81.105s-71.716-151.369-45.492-231.044l-506.453-452.25c-30.302-26.858-48.065-65.111-49.033-105.591zM71.68 167.117l515.106 459.793c5.292 4.728 7.106 12.236 4.557 18.859-26.56 68.912-14.171 146.771 32.467 204.034s120.378 85.156 193.239 73.094l-133.12-133.12c-11.043-11.004-16.471-26.439-14.746-41.933l9.557-87.586c2.501-24.035 21.498-43.032 45.534-45.534l87.586-9.557c15.496-1.743 30.939 3.688 41.933 14.746l133.427 132.676c11.818-72.839-16.218-146.438-73.502-192.954s-135.071-58.846-203.933-32.326c-6.622 2.549-14.131 0.735-18.859-4.557l-459.861-514.953c-20.664-23.113-49.927-36.705-80.917-37.587s-60.979 11.027-82.923 32.928c-21.903 21.942-33.814 51.928-32.936 82.919s14.468 60.255 37.578 80.921z" />
<glyph unicode="&#xe957;" glyph-name="car-parts" d="M865.131 448c3.534 27.714-5.748 55.841-25.881 75.974-22.776 22.792-55.544 31.595-86.247 24.014l-82.151 164.269h6.309v247.742h-132.129v-82.581h-66.065v82.581h-132.129v-247.742h6.309l-81.557-163.113c-28.755 4.889-58.55-3.98-79.707-25.187-18.548-18.548-27.797-43.883-26.409-69.434l-26.508 26.508h-89.418c-27.318 0-49.548-22.231-49.548-49.548v-99.097c0-27.318 22.231-49.548 49.548-49.548h89.418l33.032 33.032h31.249l64.446-220.953-52.984-52.984v-105.934h594.581v105.934l-47.467 47.467 66.065 226.469h196.113v132.129h-158.869zM722.531 535.057c-18.333-11.512-32.107-29.118-38.631-50.259l-7.895-25.65-121.278 253.11h79.178l88.626-177.202zM379.243 448l126.629 264.258h12.255l126.629-264.258h-265.513zM396.387 414.968v-66.065h-7.35l-20.331 66.065h27.681zM594.581 414.968v-66.065h-33.032v66.065h33.032zM528.516 414.968v-66.065h-33.032v66.065h33.032zM462.452 414.968v-66.065h-33.032v66.065h33.032zM631.907 315.871l-66.065-214.71h-100.583l-66.065 214.71h232.712zM627.613 348.903v66.065h34.799l-20.331-66.065h-14.468zM379.871 926.968h66.065v-82.581h132.129v82.581h66.065v-181.677h-264.258v181.677zM390.078 712.258h79.195l-116.934-244.042-5.103 16.582c-7.151 23.222-22.974 42.281-44.098 53.562l86.941 173.898zM158.324 348.903l-33.032-33.032h-75.743c-9.117 0-16.516 7.399-16.516 16.516v99.097c0 9.117 7.399 16.516 16.516 16.516h75.743l33.032-33.032h16.021l19.274-66.065h-35.295zM776.258 28.259v-59.227h-528.516v59.227l39.87 39.87h42.711v33.032h-30.026l-99.774 342.066c-5.929 20.364-0.314 42.364 14.716 57.394 16.467 16.467 41.092 21.487 62.695 12.883l3.749-1.519c16.401-6.557 28.788-20.001 33.99-36.881l115.018-373.942h-67.336v-33.032h373.033l39.87-39.87zM830.613 443.227l-99.774-342.066h-130.411l115.051 373.942c5.186 16.879 17.573 30.324 33.99 36.897l3.733 1.486c21.603 8.638 46.212 3.617 62.695-12.866 15.013-15.013 20.645-37.013 14.716-57.394zM858.839 348.903h-21.322l19.258 66.065h2.065v-66.065zM990.968 348.903h-33.032v16.516h-33.032v-16.516h-33.032v66.065h33.032v-16.516h33.032v16.516h33.032v-66.065zM445.935 811.355h33.032v-33.032h-33.032v33.032zM545.032 811.355h33.032v-33.032h-33.032v33.032zM429.419 35.097h33.032v-33.032h-33.032v33.032zM561.548 35.097h33.032v-33.032h-33.032v33.032z" />
<glyph unicode="&#xe958;" glyph-name="quotation" d="M251.774 489.912c8.994 68.188 69.27 129.908 179.526 183.692l19.854 9.686-81.398 150.28-18.376-9.314c-233.158-118.19-351.38-285.22-351.38-496.456 0-72.884 23.136-135.832 68.77-187.1 46.274-51.982 102.43-78.34 166.92-78.34 57.946 0 107.082 20.634 146.042 61.336 38.706 40.44 58.332 90.67 58.332 149.298 0 55.4-19.824 104.772-58.922 146.744-34.484 37.022-77.936 60.572-129.368 70.174zM351.14 152.978c-31.092-32.482-68.856-48.27-115.45-48.27-52.61 0-96.862 20.984-135.284 64.15-39.068 43.888-58.060 95.878-58.060 158.944 0 96.814 27.262 184.22 81.024 259.786 51.298 72.098 128.238 135.752 228.88 189.4l40.778-75.284c-122.64-64.268-184.778-141.524-184.778-229.848v-18.912l18.79-2.128c50.616-5.73 90.882-25.336 123.116-59.94 32.002-34.356 47.56-72.918 47.56-117.88 0.002-48.016-15.236-87.272-46.576-120.018zM826.412 489.85c8.886 68.244 68.666 129.996 178.038 183.786l19.55 9.614-79.376 150.388-18.558-9.364c-234.224-118.184-352.984-285.222-352.984-496.474 0-72.93 23.432-135.912 69.642-187.194 46.786-51.918 103.174-78.244 167.612-78.244 58.018 0 106.928 20.674 145.37 61.45 38.112 40.424 57.438 90.616 57.438 149.184 0 55.402-19.824 104.774-58.918 146.744-34.414 36.942-77.342 60.472-127.814 70.11zM924.898 152.862c-30.554-32.404-68.024-48.156-114.562-48.156-52.662 0-97.198 21.014-136.154 64.246-39.538 43.876-58.756 95.834-58.756 158.848 0 96.798 27.386 184.19 81.386 259.748 51.526 72.082 128.798 135.726 229.868 189.368l39.672-75.168c-121.756-64.29-183.45-141.562-183.45-229.894v-18.87l18.742-2.164c49.576-5.722 89.348-25.33 121.598-59.946 32.002-34.354 47.556-72.912 47.556-117.88 0.002-48.076-15.014-87.374-45.9-120.132z" />
<glyph unicode="&#xe959;" glyph-name="clock-1" d="M512 960c-282.312 0-512-229.688-512-512s229.688-512 512-512 512 229.688 512 512-229.688 512-512 512zM512 0c-247.032 0-448 200.968-448 448s200.968 448 448 448 448-200.968 448-448-200.968-448-448-448zM544 767.999h-64v-333.249l201.375-201.375 45.25 45.25-182.625 182.625z" />
<glyph unicode="&#xe95a;" glyph-name="maps-and-flags" d="M512 960c-204.49 0-370.854-166.364-370.854-370.852 0-253.776 331.878-626.334 346.008-642.070 13.272-14.782 36.444-14.756 49.692 0 14.13 15.736 346.008 388.294 346.008 642.070-0.004 204.488-166.366 370.852-370.854 370.852zM512 20.542c-111.694 132.676-304.070 394.434-304.070 568.602 0 167.668 136.404 304.072 304.070 304.072s304.070-136.404 304.070-304.070c-0.002-174.176-192.348-435.886-304.070-568.604zM512 775.732c-102.884 0-186.584-83.702-186.584-186.586s83.702-186.586 186.584-186.586 186.582 83.702 186.582 186.586-83.7 186.586-186.582 186.586zM512 469.344c-66.060 0-119.8 53.742-119.8 119.802s53.742 119.802 119.8 119.802 119.8-53.742 119.8-119.802-53.742-119.802-119.8-119.802z" />
<glyph unicode="&#xe95b;" glyph-name="envelope-1" d="M927.999 832.001h-831.999c-52.938 0-96.001-43.063-96.001-96.001v-576c0-52.938 43.063-96.001 96.001-96.001h831.999c52.938 0 96.001 43.063 96.001 96.001v576c0 52.938-43.063 96.001-96.001 96.001zM927.999 768.001c4.348 0 8.484-0.902 12.265-2.477l-428.264-371.18-428.267 371.18c3.781 1.573 7.917 2.477 12.265 2.477zM927.999 128.001h-831.999c-17.656 0-32.001 14.343-32.001 32.001v537.905l427.031-370.094c6.032-5.218 13.501-7.813 20.969-7.813s14.937 2.593 20.969 7.813l427.031 370.094v-537.907c-0.002-17.656-14.345-31.999-32.001-31.999z" />
<glyph unicode="&#xe95c;" glyph-name="bridge" d="M550.196 799.92c5.542 0.21 16.354-0.542 26.306-8.058 4.106-3.1 7.55-6.972 10.24-11.504 3.41-5.748 9.674-9.318 16.344-9.318s12.934 3.57 16.344 9.318c2.688 4.532 6.134 8.402 10.242 11.504 9.95 7.516 20.734 8.266 26.304 8.058 8.306-0.314 15.25 6.126 15.574 14.402 0.324 8.278-6.126 15.25-14.402 15.574-9.554 0.386-28.17-0.96-45.558-14.096-3.050-2.304-5.888-4.842-8.504-7.598-2.614 2.756-5.454 5.294-8.502 7.598-17.388 13.132-35.988 14.476-45.56 14.096-8.278-0.324-14.726-7.296-14.402-15.574s7.254-14.696 15.574-14.402zM370.196 889.92c5.558 0.216 16.354-0.542 26.304-8.058 4.108-3.102 7.552-6.972 10.244-11.508 3.412-5.746 9.674-9.316 16.344-9.314 6.668 0 12.93 3.572 16.34 9.316 2.69 4.534 6.136 8.406 10.242 11.506 9.952 7.518 20.758 8.268 26.304 8.058 8.262-0.322 15.25 6.124 15.574 14.402s-6.124 15.25-14.402 15.574c-9.546 0.378-28.166-0.96-45.558-14.096-3.050-2.304-5.888-4.84-8.502-7.598-2.614 2.756-5.454 5.294-8.502 7.598-17.39 13.136-36.014 14.482-45.558 14.096-8.278-0.324-14.726-7.296-14.402-15.574 0.322-8.28 7.324-14.71 15.572-14.402zM1009 38.050c-44.214 0-66.596-8.646-88.24-17.008-19.958-7.71-38.81-14.992-77.434-14.992-38.622 0-57.472 7.282-77.43 14.992-21.646 8.362-44.028 17.008-88.244 17.008-44.212 0-66.594-8.646-88.238-17.008-19.958-7.71-38.806-14.992-77.428-14.992-38.618 0-57.468 7.282-77.424 14.992-21.644 8.362-44.024 17.008-88.236 17.008s-66.594-8.646-88.238-17.008c-19.958-7.71-38.806-14.992-77.426-14.992s-57.468 7.282-77.426 14.992c-21.644 8.362-44.024 17.008-88.236 17.008-8.284 0-15-6.716-15-15s6.716-15 15-15c38.62 0 57.468-7.282 77.426-14.992 21.644-8.362 44.024-17.008 88.236-17.008s66.592 8.646 88.236 17.008c19.958 7.71 38.808 14.992 77.426 14.992s57.468-7.282 77.426-14.992c21.644-8.362 44.024-17.008 88.236-17.008s66.596 8.646 88.24 17.008c19.958 7.71 38.806 14.992 77.426 14.992 38.624 0 57.474-7.282 77.434-14.992 21.644-8.362 44.026-17.008 88.24-17.008s66.598 8.646 88.242 17.008c19.958 7.71 38.81 14.992 77.432 14.992 8.286 0 15 6.716 15 15s-6.714 15-15 15zM934 227.79v45h75c8.286 0 15 6.716 15 15s-6.714 15-15 15h-332.866c-8.286 0-15-6.716-15-15s6.714-15 15-15h53.62v-45c0-18.058 10.696-33.654 26.080-40.814l-3.856-40.716c-18.084 6.392-39.386 11.792-74.326 11.792-44.212 0-66.594-8.646-88.238-17.008-19.958-7.71-38.806-14.992-77.428-14.992-38.618 0-57.468 7.282-77.424 14.992-21.644 8.362-44.024 17.008-88.236 17.008-34.926 0-56.226-5.396-74.304-11.786l-3.856 40.71c15.384 7.16 26.082 22.758 26.082 40.816v45h311.888c8.286 0 15 6.716 15 15s-6.714 15-15 15h-591.136c-8.284 0-15-6.716-15-15s6.716-15 15-15h75v-45c0-18.056 10.694-33.652 26.076-40.814l-4.64-49.062c-2.748 1.024-5.464 2.070-8.2 3.128-21.644 8.362-44.024 17.008-88.236 17.008-8.284 0-15-6.716-15-15s6.716-15 15-15c38.62 0 57.468-7.282 77.426-14.992 21.644-8.362 44.024-17.008 88.236-17.008 42.894 0 65.198 8.108 88.236 17.008 19.958 7.71 38.808 14.992 77.426 14.992s57.468-7.282 77.426-14.992c21.644-8.362 44.024-17.008 88.236-17.008s66.596 8.646 88.24 17.008c19.958 7.71 38.806 14.992 77.426 14.992 38.624 0 57.474-7.282 77.434-14.992 21.644-8.362 44.026-17.008 88.24-17.008s66.598 8.646 88.242 17.008c19.958 7.71 38.81 14.992 77.432 14.992 8.286 0 15 6.716 15 15s-6.714 15-15 15c-44.214 0-66.596-8.646-88.24-17.008-2.734-1.056-5.45-2.104-8.196-3.126l-4.64 49.062c15.382 7.158 26.076 22.754 26.076 40.81zM180.662 126.050c-16.3 0-29.068 1.3-39.894 3.38l5.048 53.36h92.612l4.488-47.372c-15.514-5.288-33.344-9.368-62.254-9.368zM264.246 227.79c0-7.748-5.904-14.14-13.45-14.92-0.050-0.004-0.1-0.002-0.152-0.006-0.012-0.002-0.022-0.004-0.034-0.006-0.45-0.040-0.904-0.070-1.364-0.070h-114.246c-0.466 0-0.924 0.028-1.378 0.070-0.010 0-0.020 0.004-0.030 0.004-0.046 0.004-0.092 0.002-0.138 0.006-7.548 0.776-13.454 7.17-13.454 14.92v45h144.246zM843.326 126.050c-28.902 0-46.732 4.078-62.24 9.362l4.486 47.378h92.612l5.048-53.36c-10.828-2.080-23.602-3.38-39.906-3.38zM904 227.79c0-7.748-5.906-14.142-13.452-14.92-0.048-0.004-0.094-0.002-0.14-0.006-0.010 0-0.020-0.004-0.030-0.004-2.23-0.212-114.678-0.218-116.99 0-0.012 0.002-0.022 0.004-0.034 0.006-0.050 0.004-0.1 0.002-0.152 0.006-7.544 0.78-13.448 7.172-13.448 14.92v45h144.246zM1009 362.916h-45v179.122c14.476-1.302 29.442-1.968 45-1.968 8.286 0 15 6.716 15 15s-6.714 15-15 15c-46.25 0-86.844 6.054-123.74 18.442v278.054c0 29.436-23.948 53.382-53.382 53.382s-53.382-23.948-53.382-53.382v-221.544c-3.228 2.17-6.44 4.338-9.612 6.482-30.706 20.756-61.942 41.844-100.812 58.016-0.166 0.074-0.336 0.144-0.506 0.212-40.676 16.85-89.722 28.306-155.318 28.336-0.084 0.002-0.164 0.012-0.246 0.012s-0.164-0.012-0.246-0.012c-65.6-0.030-114.646-11.486-155.324-28.338-0.166-0.066-0.332-0.136-0.496-0.208-38.872-16.172-70.11-37.26-100.816-58.018-3.172-2.144-6.384-4.312-9.612-6.482v221.544c0 29.436-23.948 53.382-53.382 53.382s-53.386-23.946-53.386-53.382v-111.36c0-8.284 6.716-15 15-15s15 6.716 15 15v111.36c0 12.894 10.49 23.382 23.382 23.382s23.382-10.49 23.382-23.382v-248.924c-0.002-0.046 0-0.092 0-0.136v-254.592h-46.764v322.294c0 8.284-6.716 15-15 15s-15-6.716-15-15v-96.696c-36.896-12.388-77.49-18.442-123.74-18.442-8.284 0-15-6.716-15-15s6.716-15 15-15c15.558 0 30.524 0.668 45 1.968v-179.122h-45c-8.284 0-15-6.716-15-15s6.716-15 15-15h994c8.286 0 15 6.716 15 15s-6.714 15-15 15zM138.74 362.916h-48.74v182.862c16.906 2.74 33.108 6.49 48.74 11.244zM347 362.916h-101.494v246.12c8.992 5.848 17.822 11.806 26.414 17.612 24.256 16.398 48 32.426 75.082 45.874v-309.606zM497 362.916h-120v322.76c32.678 12.394 71.018 20.734 120 22.154zM647 362.916h-120v344.914c48.982-1.42 87.322-9.76 120-22.154zM778.494 362.916h-101.494v309.608c27.080-13.45 50.824-29.478 75.080-45.876 8.59-5.808 17.422-11.766 26.414-17.612zM855.26 362.916h-46.766v254.59c0 0.046 0.002 0.092 0 0.136v248.924c0 12.894 10.49 23.382 23.382 23.382s23.382-10.49 23.382-23.382v-503.65zM934 362.916h-48.74v194.106c15.632-4.754 31.834-8.504 48.74-11.244z" />
<glyph unicode="&#xe95d;" glyph-name="engineering" d="M752 624c0-8.837-7.163-16-16-16s-16 7.163-16 16c0 8.837 7.163 16 16 16s16-7.163 16-16zM887.632 859.216c-77.344 18.704-155.248-20.288-186.176-91.216h-45.456c-17.648 0-32-14.352-32-32v-32c0-17.648 14.352-32 32-32h21.92c-9.904-23.136-21.92-61.536-21.92-112v-16h33.616c7.44-36.464 39.744-64 78.384-64v-68.32c-15.376-8.384-29.664-18.72-42.096-31.152-2.288-2.288-4.336-4.768-6.496-7.152l-159.408 45.552v173.072h-121.856l-35.296 35.296-57.648-41.12-11.648 69.824h-91.088l-11.664-69.84-57.648 41.12-35.616-35.616c-67.568-3.392-121.536-59.28-121.536-127.664v-384c0-70.576 57.424-128 128-128h448v128h80v-128h272v352c0 41.472-15.28 98.176-48.816 134.832l-5.488 38.352 20.544 12.832c61.216 38.288 97.76 104.224 97.76 176.4v35.76c0 75.344-49.504 139.936-120.368 157.040zM880.128 828.112c54.976-13.28 94.976-65.296 95.792-124.112h-95.92v32c0 17.648-14.352 32-32 32h-110.88c28.032 48.544 85.632 73.952 143.008 60.112zM656 736h192v-32h-192zM800 480h32v32h-64c-26.464 0-48 21.536-48 48v16h-31.536c2.784 48.24 17.568 82.032 24.832 96h134.704v-64h16c8.832 0 16-7.184 16-16 0-6.048-2.336-11.728-6.624-16l-26.336-26.336 15.152-106.112-56.72-16.208c-1.872-0.528-3.616-1.36-5.472-1.952zM814.256 396.576l50.896 14.544-59.856-49.888-13.376 26.752c7.216 3.376 14.624 6.384 22.336 8.592zM698.928 345.952c-10.624-17.392-18.288-36.32-22.608-56.272l-84.32 24.096v54.224h-32v17.648zM528 144c0 17.648 14.352 32 32 32h32v-64h-32c-17.648 0-32 14.352-32 32zM592 208v72.496l80.352-22.96c-0.096-2.368-0.352-4.736-0.352-7.136v-42.4zM465.264 560h62.736v-192h-85.584l-16.256 22.784 69.84 11.664v91.088l-69.84 11.664zM176.608 585.504l55.664-39.712 8.368 3.776c2.72 1.232 5.552 2.464 8.384 3.408l9.136 3.040 11.392 67.984h36.912l11.36-67.984 9.136-3.040c2.848-0.944 5.664-2.176 8.384-3.408l8.368-3.776 55.664 39.712 26.128-26.128-39.712-55.648 3.76-8.368c1.216-2.704 2.464-5.536 3.408-8.384l3.024-9.168 68-11.36v-36.912l-68-11.36-3.024-9.168c-0.944-2.848-2.192-5.68-3.408-8.384l-3.76-8.368 17.328-24.256h-230.24l17.312 24.256-3.76 8.368c-1.216 2.704-2.464 5.536-3.408 8.384l-3.024 9.168-68 11.376v36.912l68 11.36 3.024 9.168c0.944 2.848 2.192 5.68 3.408 8.384l3.76 8.368-39.712 55.648zM114.224 555.12l35.632-49.904-69.856-11.664v-91.088l69.84-11.664-15.888-22.256c-48.224 5.024-85.952 45.904-85.952 95.456 0 42.448 27.712 78.48 66.224 91.12zM48 80v299.616c23.472-26.672 57.76-43.616 96-43.616h416v-128c-35.296 0-64-28.704-64-64h-32v160h-128v-160h-64v-160h-128c-52.944 0-96 43.056-96 96zM432 144h-64v128h64zM560-16h-256v128h200.896c11.104-19.040 31.52-32 55.104-32zM912-16h-208v96h69.168c52.4 0 100.288 26.528 128.048 70.976 3.888 6.224 7.472 12.304 10.784 18.272zM912 288c0-42.752-10.624-76.416-37.904-120.064-21.888-35.024-59.632-55.936-100.928-55.936h-149.168v64h150.112c12.224 0 23.184 6.784 28.624 17.68l43.584 87.152-28.624 14.32-43.584-87.152h-70.112v42.4c0 40.608 15.808 78.784 44.528 107.504 4.928 4.944 10.256 9.44 15.808 13.632l30.384-60.768 95.584 79.664c13.376-25.264 21.696-56.96 21.696-86.432zM893.28 517.168l-8.528-5.328-3.792 26.496 15.040 15.024c10.32 10.32 16 24.032 16 38.64 0 20.864-13.376 38.656-32 45.264v34.736h96v-5.584c0-61.072-30.928-116.864-82.72-149.248zM464 48h32v-32h-32zM400 48h32v-32h-32zM336 48h32v-32h-32zM144 208h160v-32h-160zM144 272h160v-32h-160zM144 144h96v-32h-96zM144 80h96v-32h-96zM272 850.944v-162.944h32v162.944c18.576 6.624 32 24.224 32 45.056 0 26.464-21.536 48-48 48s-48-21.536-48-48c0-20.832 13.424-38.432 32-45.056zM288 912c8.832 0 16-7.184 16-16s-7.168-16-16-16-16 7.184-16 16 7.168 16 16 16zM64 720c20.832 0 38.432 13.424 45.056 32h98.944v-64h32v96h-130.944c-6.624 18.576-24.224 32-45.056 32-26.464 0-48-21.536-48-48s21.536-48 48-48zM64 784c8.832 0 16-7.184 16-16s-7.168-16-16-16-16 7.184-16 16 7.168 16 16 16zM336 848v-160h32v128h32v-96h96v32h-64v64h98.944c6.624-18.576 24.224-32 45.056-32 26.464 0 48 21.536 48 48s-21.536 48-48 48c-20.832 0-38.432-13.424-45.056-32h-98.944v32h-32v-32zM576 848c8.832 0 16-7.184 16-16s-7.168-16-16-16-16 7.184-16 16 7.168 16 16 16zM240 848h-64v32h-32v-64h96zM144 944h32v-32h-32zM368 448c0 44.112-35.888 80-80 80s-80-35.888-80-80 35.888-80 80-80 80 35.888 80 80zM288 400c-26.464 0-48 21.536-48 48s21.536 48 48 48 48-21.536 48-48-21.536-48-48-48zM400 944h32v-32h-32zM528 752h32v-32h-32z" />
<glyph unicode="&#xe95e;" glyph-name="house-plan" d="M878.038 533.334v-362.666h-426.668v362.666h-42.666v-384c0-11.782 9.552-21.334 21.334-21.334h469.334c11.782 0 21.334 9.552 21.334 21.334v384h-42.668zM679.296 762.218c-8.206 7.694-20.978 7.694-29.184 0l-341.334-320 29.184-31.104 326.742 306.304 326.742-306.304 29.184 31.104-341.334 320zM728.704 448h-128c-35.346 0-64-28.654-64-64v-234.666h42.666v234.666c0 11.782 9.552 21.334 21.334 21.334h128c11.782 0 21.334-9.552 21.334-21.334v-234.666h42.666v234.666c0 35.346-28.654 64-64 64zM430.038 533.334h213.334v-42.666h-213.334v42.666zM686.038 533.334h213.334v-42.666h-213.334v42.666zM771.37 768v128c0 35.346-28.654 64-64 64h-512c-5.658-0.002-11.082-2.25-15.082-6.25l-170.666-170.668c-4-4-6.25-9.426-6.25-15.082v-768c0-35.346 28.654-64 64-64h640c35.346 0 64 28.654 64 64v85.334h-42.666v-85.334c0-11.782-9.552-21.334-21.334-21.334h-640c-11.782 0-21.334 9.552-21.334 21.334v759.168l158.166 158.166h503.168c11.782 0 21.334-9.552 21.334-21.334v-128h42.664zM174.038 938.666v-128c0-11.782-9.552-21.334-21.334-21.334h-42.666v-42.666h42.666c35.346 0 64 28.654 64 64v128h-42.666zM195.37 661.334h213.334v-42.666h-213.334v42.666zM110.038 661.334h42.666v-42.666h-42.666v42.666zM195.37 490.666h85.334v-42.666h-85.334v42.666zM110.038 490.666h42.666v-42.666h-42.666v42.666zM238.038 320h128v-42.666h-128v42.666zM152.704 320h42.666v-42.666h-42.666v42.666zM152.704 64c-11.782 0-21.334 9.552-21.334 21.334v42.666h-42.666v-42.666c0-35.346 28.654-64 64-64h42.666v42.666h-42.666zM238.038 64h42.666v-42.666h-42.666v42.666z" />
<glyph unicode="&#xe95f;" glyph-name="old-boiler" d="M988.448 464.439c0 58.963-16.062 116.861-46.45 167.434-28.749 47.845-69.071 87.2-116.799 114.179v43.486c0 26.012-21.161 47.173-47.173 47.173h-46.045v39.014c0 46.469-37.806 84.275-84.275 84.275h-527.878c-46.469 0-84.275-37.806-84.275-84.275v-924.083c0-4.978 4.032-9.011 9.011-9.011h74.204c4.978 0 9.011 4.032 9.011 9.011v916.133h511.977v-31.064h-77.982c-26.012 0-47.173-21.161-47.173-47.173v-43.392c-103.438-56.317-167.489-163.726-167.489-281.706 0-44.092 9.049-86.365 25.441-124.939v-356.328c0-26.012 21.161-47.173 47.173-47.173h4.24c26.010 0 47.173 21.161 47.173 47.173v228.099c41.855-32.639 92.119-55.202 147.348-63.722v-164.377c0-26.012 21.161-47.173 47.173-47.173h4.24c26.012 0 47.173 21.161 47.173 47.173v164.377c55.229 8.521 105.493 31.083 147.348 63.722v-228.099c0-26.012 21.161-47.173 47.173-47.173h4.24c26.012 0 47.173 21.161 47.173 47.173v356.328c16.393 38.573 25.441 80.846 25.441 124.939zM109.759 0.693h-56.183v198.22h34.45c4.978 0 9.011 4.032 9.011 9.011s-4.032 9.011-9.011 9.011h-34.45v493.96h56.183v-710.201zM53.575-39.347v22.020h56.183v-22.020h-56.183zM647.707 885.796h-527.878c-5.553 0-10.071-4.518-10.071-10.071v-146.81h-56.183v146.81c0 36.532 29.722 66.254 66.254 66.254h527.878c36.532 0 66.254-29.722 66.254-66.254v-39.014h-56.183v39.014c0 5.553-4.518 10.071-10.071 10.071zM532.622 789.538c0 16.075 13.077 29.152 29.152 29.152h216.252c13.957 0 25.641-9.863 28.482-22.982h-179.010c-4.978 0-9.011-4.032-9.011-9.011s4.032-9.011 9.011-9.011h179.68v-32.862h-274.555v44.713zM453.118-16.827c0-16.075-13.077-29.152-29.152-29.152h-4.24c-16.075 0-29.152 13.077-29.152 29.152v320.352c16.764-28.8 37.897-54.826 62.543-77.119v-243.233zM699.052-16.827c0-16.075-13.077-29.152-29.152-29.152h-4.24c-16.075 0-29.152 13.077-29.152 29.152v258.654c0 16.075 13.077 29.152 29.152 29.152h4.24c16.075 0 29.152-13.077 29.152-29.152v-258.654zM669.9 289h-4.24c-26.012 0-47.173-21.161-47.173-47.173v-76.015c-145.143 23.769-253.354 150.352-253.354 298.627 0 1.951 0.064 3.888 0.1 5.83h376.751c4.978 0 9.011 4.032 9.011 9.011s-4.032 9.011-9.011 9.011h-375.886c1.849 23.686 6.413 46.785 13.507 68.904h122.806c4.978 0 9.011 4.032 9.011 9.011s-4.032 9.011-9.011 9.011h-116.39c25.011 63.76 71.378 118.035 133.061 152.852 1.336-0.782 2.871-1.264 4.533-1.264h292.576c1.594 0 3.070 0.449 4.37 1.177 92.698-54.324 149.869-154.381 149.869-263.541 0-27.606-3.767-54.455-10.81-80.034h-308.163c-4.978 0-9.011-4.032-9.011-9.011s4.032-9.011 9.011-9.011h302.585c-35.465-103.101-125.274-182.281-236.968-200.572v76.015c0 26.010-21.163 47.173-47.173 47.173zM944.985-16.827c0-16.075-13.077-29.152-29.152-29.152h-4.24c-16.075 0-29.152 13.077-29.152 29.152v243.233c24.646 22.293 45.78 48.32 62.543 77.119v-320.352z" />
<glyph unicode="&#xe960;" glyph-name="wind-turbine" d="M912.501 258.256c-25.773 20.57-63.375 47.758-111.774 80.797-81.61 55.719-173.875 114.524-224.883 146.649-2 51.914-6.852 165.399-14.398 265.922-4.43 59.008-9.18 105.641-14.133 138.594-8.156 54.336-16.25 71.781-33.313 71.781-18.977 0-26.063-23.891-33.18-70.938-4.93-32.563-9.664-78.672-14.078-137.039-7.461-98.625-12.266-208.125-14.578-268.321-43.805-27.594-140.032-88.766-223.477-145.688-48.781-33.274-86.703-60.656-112.711-81.375-42.875-34.172-53.899-49.875-45.375-64.641 3.727-6.461 9.477-9.766 19.047-9.766 12.266 0 30.789 5.438 59.336 16.641 30.828 12.094 73.336 31.164 126.352 56.664 70.969 34.141 146.836 73.055 201.719 101.68l-26.148-405.22c-0.531-8.281 5.75-15.43 14.031-15.969 0.336-0.016 0.656-0.031 0.984-0.031 7.859 0 14.469 6.109 14.984 14.063l27.32 423.493c0.977 0.516 1.953 1.023 2.922 1.539 0.664 0.352 2.141 1.5 2.852 1.5 0.656 0 1.93-1.016 2.523-1.328 1.086-0.57 2.164-1.141 3.25-1.711l27.32-423.485c0.516-7.953 7.125-14.063 14.984-14.063 0.328 0 0.656 0.008 0.984 0.031 8.281 0.531 14.563 7.68 14.031 15.961l-26.148 405.227c31.672-16.516 70.438-36.516 111.461-57.172 7.82-3.93 17.555-0.172 20.758 7.945 2.805 7.125-0.406 15.461-7.242 18.906-49.406 24.875-95.508 48.781-129.828 66.781 18.383 10.898 30.781 30.852 31.008 53.672 48.836-30.898 123.68-78.883 193.008-125.836 79.719-53.984 119.875-84.82 140.086-102.266-27.266 9.492-79.719 31.359-180.407 80.836-7.445 3.664-16.453 0.594-20.117-6.859-3.656-7.445-0.586-16.453 6.859-20.117 62.164-30.547 112.281-53.695 148.977-68.805 36.367-14.969 58.719-22.070 72.781-22.070 9.648 0 15.398 3.336 19.109 9.766 9.5 16.438-7.664 34.531-44.899 64.25zM514 907.469c5.047-26.43 11.727-77.188 18.68-174.602 5.906-82.805 9.977-170.289 12.32-227.915-9.164 5.195-19.734 8.172-31 8.172-11.258 0-21.828-2.977-30.992-8.164 2.344 57.742 6.484 146.703 12.492 230.321 6.883 95.844 13.5 145.977 18.5 172.188zM117.827 221.264c20.328 17.555 60.844 48.649 141.485 103.219 68.875 46.602 142.828 94.016 191.586 124.875 0.227-22.828 12.625-42.781 31.008-53.68-51.141-26.82-129.649-67.406-204.711-103.86-87.086-42.297-134.078-61.75-159.367-70.555zM514 416.936c-18.227 0-33.063 14.828-33.063 33.063s14.836 33.063 33.063 33.063c18.234 0 33.070-14.828 33.070-33.063s-14.836-33.063-33.070-33.063zM674.258 902.492c-7.82 2.766-16.414-1.328-19.18-9.148-2.773-7.828 1.32-16.414 9.148-19.188 179.235-63.484 299.657-233.938 299.657-424.157 0-24.781-2.070-49.774-6.141-74.297-1.359-8.188 4.172-15.922 12.359-17.289 0.836-0.133 1.664-0.203 2.484-0.203 7.219 0 13.586 5.211 14.805 12.563 4.352 26.148 6.547 52.805 6.547 79.227 0 202.922-128.469 384.766-319.68 452.493zM632.11 783.468c140.907-49.914 235.586-183.922 235.586-333.469 0-19.484-1.625-39.133-4.828-58.414-1.359-8.188 4.172-15.93 12.359-17.289 0.836-0.141 1.664-0.203 2.484-0.203 7.219 0 13.586 5.211 14.805 12.563 3.477 20.906 5.234 42.211 5.234 63.344 0 162.25-102.719 307.649-255.61 361.798-7.828 2.773-16.414-1.32-19.188-9.148-2.766-7.82 1.328-16.406 9.156-19.18zM599.985 692.781c102.594-36.336 171.524-133.907 171.524-242.782 0-14.188-1.188-28.492-3.516-42.531-1.367-8.188 4.172-15.93 12.359-17.289 0.836-0.141 1.664-0.211 2.484-0.211 7.211 0 13.586 5.219 14.805 12.57 2.602 15.656 3.922 31.625 3.922 47.461 0 121.578-76.977 230.532-191.539 271.11-7.828 2.773-16.414-1.328-19.188-9.148s1.328-16.406 9.148-19.18zM71.562 368.014c-34.641 186.969 52.766 376.485 217.5 471.595 21.461 12.383 44.141 23.094 67.414 31.828 7.773 2.914 11.703 11.578 8.789 19.344-2.914 7.773-11.578 11.711-19.352 8.797-24.813-9.313-49-20.727-71.883-33.938-175.735-101.461-268.977-303.641-232.024-503.103 1.344-7.234 7.656-12.289 14.758-12.289 0.914 0 1.836 0.078 2.758 0.25 8.164 1.516 13.555 9.359 12.039 17.516zM136.601 380.069c1.344-7.234 7.656-12.289 14.766-12.289 0.906 0 1.828 0.078 2.75 0.25 8.164 1.508 13.555 9.352 12.039 17.516-27.227 146.992 41.492 295.985 171 370.759 16.875 9.742 34.711 18.164 53 25.031 7.773 2.914 11.711 11.578 8.797 19.352-2.922 7.773-11.578 11.703-19.352 8.789-19.836-7.445-39.172-16.57-57.477-27.141-140.516-81.125-215.071-242.782-185.524-402.266zM231.203 397.6c1.336-7.234 7.656-12.297 14.758-12.297 0.906 0 1.828 0.086 2.758 0.258 8.164 1.508 13.555 9.352 12.039 17.516-19.828 107.016 30.203 215.493 124.492 269.93 12.281 7.086 25.266 13.219 38.594 18.219 7.766 2.914 11.703 11.578 8.789 19.352s-11.586 11.711-19.352 8.789c-14.867-5.578-29.359-12.414-43.063-20.328-105.289-60.797-161.157-181.938-139.016-301.438z" />
</font>
</defs>
</svg>
